I M 24 2012 Hindi MULTISUB DVDrip Xvid IAPULA

Size 723.436 MB   0 seeders     Added 2012-09-02 18:38:46

To download or stream you need BitLord. Visit them at BitLord.com
Video
ID : 0
Format : MPEG-4 Visual
Format profile : Advanced Simple@L5
Format settings, BVOP : 2
Format settings, QPel : No
Format settings, GMC : No warppoints
Format settings, Matrix : Default (H.263)
Codec ID : XVID
Codec ID/Hint : XviD
Duration : 1h 36mn
Bit rate : 1 450 Kbps
Width : 720 pixels
Height : 256 pixels
Display aspect ratio : 2.813
Frame rate : 25.000 fps
Color space : YUV
Chroma subsampling : 4:2:0
Bit depth : 8 bits
Scan type : Progressive
Compression mode : Lossy
Bits/(Pixel*Frame) : 0.315
Stream size : 1 001 MiB (79%)
Writing library : XviD 1.2.1 (UTC 2008-12-04)

Audio
ID : 1
Format : AC-3
Format/Info : Audio Coding 3
Mode extension : CM (complete main)
Codec ID : 2000
Duration : 1h 36mn
Bit rate mode : Constant
Bit rate : 384 Kbps
Channel(s) : 6 channels
Channel positions : Front: L C R, Side: L R, LFE
Sampling rate : 48.0 KHz
Bit depth : 16 bits
Compression mode : Lossy
Stream size : 265 MiB (21%)
Alignment : Aligned on interleaves
Interleave, duration : 64 ms (1.60 video frames)
Interleave, preload duration : 192 ms
I M 24 2012 Hindi MULTISUB DVDrip Xvid IAPULA/I M 24 2012 Hindi MULTISUB DVDrip Xvid IAPULA.part01.rar 83.886 MB
I M 24 2012 Hindi MULTISUB DVDrip Xvid IAPULA/I M 24 2012 Hindi MULTISUB DVDrip Xvid IAPULA.part02.rar 83.886 MB
I M 24 2012 Hindi MULTISUB DVDrip Xvid IAPULA/I M 24 2012 Hindi MULTISUB DVDrip Xvid IAPULA.part03.rar 83.886 MB
Gathering some info...

Register and log in Isohunt and see no captcha anymore!

4000 symbols left
Hash c500ac80ab67020bd5fe8a29e5be396c132c6add