The Last Stand 2012 FRENCH DVDRiP XviD -playXD Verified

Size 736.979 MB   0 seeders     Added 2012-09-02 18:43:31

To download or stream you need BitLord. Visit them at BitLord.com
[IMG]image[/IMG]
 
TITLE: 

The Last Stand 2012 FRENCH DVDRiP XviD -playXD

IMDB: 

http://www.imdb.com/title/tt1549920/


STATS:

Video
ID                               : 0
Format                           : MPEG-4 Visual
Format profile                   : Advanced Simple@L5
Format settings, BVOP            : 2
Format settings, QPel            : No
Format settings, GMC             : No warppoints
Format settings, Matrix          : Default (MPEG)
Muxing mode                      : Packed bitstream
Codec ID                         : XVID
Codec ID/Hint                    : XviD
Duration                         : 1h58mn
Bit rate                         : 986 Kbps
Width                            : 720 pixels
Height                           : 320 pixels
Display aspect ratio             : 2.25:1
Frame rate                       : 29.970 fps
Color space                      : YUV
Chroma subsampling               : 4:2:0
Bit depth                        : 8 bits
Scan type                        : Progressive
Compression mode                 : Lossy
Bits/(Pixel*Frame)               : 0.243
Stream size                      : 702 MiB (92%)
Writing library                  : XviD 64

Audio

Format                           : MPEG Audio
Format version                   : Version 1
Format profile                   : Layer 3
Mode                             : Joint stereo
Mode extension                   : MS Stereo
Codec ID                         : 55
Codec ID/Hint                    : MP3
Duration                         : 1h 58mn
Bit rate mode                    : Constant
Bit rate                         : 128 Kbps
Channel(s)                       : 2 channels
Sampling rate                    : 48.0 KHz
Compression mode                 : Lossy
Stream size                      : 51 MiB (7%)
Alignment                        : Split accross interleaves
Interleave, duration             : 33 ms (1.00 video frame)
Interleave, preload duration     : 500 ms









The Last Stand 2012 FRENCH DVDRiP XviD -playXD/cover.jpg 61.251 KB
The Last Stand 2012 FRENCH DVDRiP XviD -playXD/The Last Stand 2012 FRENCH DVDRiP XviD -playXD.nfo 2.077 KB
The Last Stand 2012 FRENCH DVDRiP XviD -playXD/The Last Stand 2012 FRENCH DVDRiP XviD -playXD/The Last Stand 2012 FRENCH DVDRiP XviD -playXD.rar 736.916 MB
Gathering some info...

Register and log in Isohunt and see no captcha anymore!

4000 symbols left
Hash e3e65e3b82783168a2c4fa5c9784cd419fba68c9

Related torrents for "The Last Stand 2012 FRENCH DVDRiP XviD -playXD"

Torrent search:

french 2012