Rebelle (2012) FRENCH DVDRip XviD - 3PsiLoN

Size 738.446 MB   0 seeders     Added 2012-09-03 19:15:52

To download or stream you need BitLord. Visit them at BitLord.com
[IMG]image[/IMG]
 
TITLE: 

Rebelle (2012) FRENCH DVDRip XviD - 3PsiLoN

IMDB: 

http://www.imdb.com/title/tt1217209/


STATS:

Video
ID                               : 0
Format                           : MPEG-4 Visual
Format profile                   : Advanced Simple@L5
Format settings, BVOP            : 2
Format settings, QPel            : No
Format settings, GMC             : No warppoints
Format settings, Matrix          : Default (MPEG)
Muxing mode                      : Packed bitstream
Codec ID                         : XVID
Codec ID/Hint                    : XviD
Duration                         : 1h 40mn
Bit rate                         : 986 Kbps
Width                            : 720 pixels
Height                           : 320 pixels
Display aspect ratio             : 2.25:1
Frame rate                       : 29.970 fps
Color space                      : YUV
Chroma subsampling               : 4:2:0
Bit depth                        : 8 bits
Scan type                        : Progressive
Compression mode                 : Lossy
Bits/(Pixel*Frame)               : 0.243
Stream size                      : 700 MiB (92%)
Writing library                  : XviD 64

Audio

Format                           : MPEG Audio
Format version                   : Version 1
Format profile                   : Layer 3
Mode                             : Joint stereo
Mode extension                   : MS Stereo
Codec ID                         : 55
Codec ID/Hint                    : MP3
Duration                         : 1h 40mn
Bit rate mode                    : Constant
Bit rate                         : 128 Kbps
Channel(s)                       : 2 channels
Sampling rate                    : 48.0 KHz
Compression mode                 : Lossy
Stream size                      : 51 MiB (7%)
Alignment                        : Split accross interleaves
Interleave, duration             : 33 ms (1.00 video frame)
Interleave, preload duration     : 500 ms


SCREENS:

[IMG]image[/IMG]
[IMG]image[/IMG]
[IMG]image[/IMG]
......................




Rebelle (2012) FRENCH DVDRip XviD - 3PsiLoN/cover.jpg 74.536 KB
Rebelle (2012) FRENCH DVDRip XviD - 3PsiLoN/Rebelle (2012) FRENCH DVDRip XviD - 3PsiLoN.nfo 2.23 KB
Rebelle (2012) FRENCH DVDRip XviD - 3PsiLoN/Rebelle (2012) FRENCH DVDRip XviD - 3PsiLoN/Rebelle (2012) FRENCH DVDRip XviD - 3PsiLoN.rar 736.916 MB
Gathering some info...

Register and log in Isohunt and see no captcha anymore!

4000 symbols left
Hash fa73c827370e4b3920c6a3d095cbc7173ca803fb

Related torrents for " Rebelle (2012) FRENCH DVDRip XviD - 3PsiLoN"

Torrent search:

french 2012