Ice Age 4 Continental Drift 2012 TRUEFRENCH XViD FrTeam-RESiSTANCE

Size 1.534 GB   0 seeders     Added 2012-09-04 18:09:14

To download or stream you need BitLord. Visit them at BitLord.com
Plot:
Manny, Diego, and Sid embark upon another adventure after their continent is set adrift. Using an iceberg as a ship, they encounter sea creatures and battle pirates as they explore a new world.


Video
ID                                               : 0
Format                                      : MPEG-4 Visual
Format profile                         : Advanced Simple@L5
Format settings, BVOP           : 2
Format settings, QPel             : No
Format settings, GMC                     : No warppoints
Format settings, Matrix                  : Default (H.263)
Codec ID                                            : XVID
Codec ID/Hint                                   : XviD
Duration                                            : 1h 18mn
Bit rate                                               : 2 000 Kbps
Width                                                 : 720 pixels
Height                                                : 304 pixels
Display aspect ratio                         : 2.35:1
Frame rate                                        : 23.976 fps
Color space                                       : YUV
Chroma subsampling                       : 4:2:0
Bit depth                                           : 8 bits
Scan type                                          : Progressive
Compression mode                         : Lossy
Bits/(Pixel*Frame)                           : 0.381
Stream size                                       : 1.10 GiB (94%)
Writing library                                  : XviD 64
SiZE                                                     : 1.39 GiB

Audio
ID                                                      : 1
Format                                             : MPEG Audio
Format version                               : Version 1
Format profile                                : Layer 3
Mode                                               : Joint stereo
Mode extension                             : MS Stereo
Codec ID                                          : 55
Codec ID/Hint                                 : MP3
Duration                                          : 1h 18mn
Source duration                             : 1h 18mn
Bit rate mode                                 : Constant
Bit rate                                            : 128 Kbps
Channel(s)                                      : 2 channels
Sampling rate                                : 44.1 KHz
Compression mode                      : Lossy
Stream size                                    : 72.0 MiB (6%)
Alignment                                      : Aligned on interleaves
Interleave, duration                     : 42 ms (1.00 video frame)
Encoding settings                         : -m j -V 4 -q 2 -lowpass 17 -b 128
Ice Age 4 Continental Drift 2012 TRUEFRENCH XViD FrTeam-RESiSTANCE/Ice Age 4 Continental Drift 2012 TRUEFRENCH XViD FrTeam-RESiSTANCE.rar 1.53 GB
Ice Age 4 Continental Drift 2012 TRUEFRENCH XViD FrTeam-RESiSTANCE/Read me Ice Age 4 Continental Drift.doc 4.039 MB
Ice Age 4 Continental Drift 2012 TRUEFRENCH XViD FrTeam-RESiSTANCE/Ice-Age-4-Continental-Drift-2012--Front-Cover COPY.jpg 116.075 KB
Gathering some info...

Register and log in Isohunt and see no captcha anymore!

4000 symbols left
Hash 8467d4a98bc93d594eff25ac3129195bd8b2ffc2

Related torrents for "Ice Age 4 Continental Drift 2012 TRUEFRENCH XViD FrTeam-RESiSTANCE"

Torrent search:

2012