Gym Class Heroes - Martyrial Girls (h264mp4)

Size 95.247 MB   1 seeders     Added 2012-09-05 02:38:07

Stream torrent
Starting‥ You need BitLord! Get it from BitLord.com
To download or stream you need BitLord. Visit them at BitLord.com
General
Format : MPEG-4
Format profile : Base Media
Codec ID : isom
File size : 90.8 MiB
Duration : 3mn 40s
Overall bit rate mode : Variable
Overall bit rate : 3 454 Kbps
Encoded date : UTC 2012-08-31 03:38:13
Tagged date : UTC 2012-08-31 03:38:13
Video
ID : 1
Format : AVC
Format/Info : Advanced Video Codec
Format profile : High@L3.0
Format settings, CABAC : Yes
Format settings, ReFrames : 2 frames
Codec ID : avc1
Codec ID/Info : Advanced Video Coding
Duration : 3mn 40s
Bit rate : 3 217 Kbps
Maximum bit rate : 4 780 Kbps
Width : 720 pixels
Height : 480 pixels
Display aspect ratio : 16:9
Original display aspect ratio : 16:9
Frame rate mode : Constant
Frame rate : 23.976 fps
Standard : NTSC
Color space : YUV
Chroma subsampling : 4:2:0
Bit depth : 8 bits
Scan type : Progressive
Bits/(Pixel*Frame) : 0.388
Stream size : 84.5 MiB (93%)
Audio
ID : 2
Format : MPEG Audio
Format version : Version 1
Format profile : Layer 3
Mode : Joint stereo
Mode extension : MS Stereo
Codec ID : 6B
Duration : 3mn 40s
Bit rate mode : Variable
Bit rate : 235 Kbps
Maximum bit rate : 252 Kbps
Channel(s) : 2 channels
Sampling rate : 44.1 KHz
Compression mode : Lossy
Delay relative to video : -833ms
Stream size : 6.18 MiB (7%)
 
GymClassHeroes-MartyrialGirls-descargar-videos.org.mp4 95.247 MB
Gathering some info...

Register and log in Isohunt and see no captcha anymore!

4000 symbols left
Hash C0AA8EC57D952E2C7B99E0AA58114E9C70EDAA64