imdb
rating

5.9
Hall Pass

Hall Pass (2011)

Comedy, Romance

Full description
quality   telesync screener dvdrip

Hall Pass 2011 DVD9rip English Klam

Size 1.964 GB   0 seeders     Added 2012-09-06 02:56:15

Stream torrent
Starting‥ You need BitLord! Get it from BitLord.com
To download or stream you need BitLord. Visit them at BitLord.com
[img] image[/img]\r\n\r\nWith: Owen Wilson, Jason Sudeikis and Jenna Fischer\r\n\r\nRick (Owen Wilson) en Fred (Jason Sideikis) zijn beste vrienden en beiden al lang getrouwd. Wanneer ze zich onrustig beginnen te voelen, krijgen ze van hun vrouwen een \"hall pass\", wat inhoudt dat ze een week lang mogen uitspoken wat ze willen zonder dat er vragen gesteld worden. In het begin lijkt het een droom die uitkomt, maar al snel komen ze erachter dat hun verwachtingen over het vrijgezellenbestaan niet stroken met de werkelijkheid.\r\n\r\nRick and Fred, two husbands who are having difficulty in their marriages, are given a Hall Pass by their wives: for one week, they can do whatever they want. \r\n\r\nhttp://www.imdb.com/title/tt0480687\r\n\r\n[COLOR=#DD0000]------------------------ Dutch Friends ------------------------\r\n---------------------------------------------------------------\r\n- Bezoek ook eens mijn vrienden op:  http://www.Film-Test.nl --\r\n----- voor mijn Nederlandse Sync. ondertitels ---- en meer ----\r\n------- http://www.Film-Test.nl ---- voor Films en meer -------\r\n---------------------------------------------------------------[/COLOR]\r\n\r\nGeneral:\r\n\r\nComplete name                    : Hall Pass\\Hall Pass.avi\r\nFormat                           : AVI\r\nFormat/Info                      : Audio Video Interleave\r\nFile size                        : 1.83 GiB\r\nDuration                         : 1h 41mn\r\nOverall bit rate                 : 2 590 Kbps\r\n\r\nVideo:\r\n\r\nFormat                           : MPEG-4 Visual\r\nFormat profile                   : Simple@L3\r\nFormat settings, BVOP            : No\r\nFormat settings, QPel            : No\r\nFormat settings, GMC             : No warppoints\r\nFormat settings, Matrix          : Default (H.263)\r\nCodec ID                         : XVID\r\nCodec ID/Hint                    : XviD\r\nDuration                         : 1h 41mn\r\nBit rate                         : 2 196 Kbps\r\nWidth                            : 720 pixels\r\nHeight                           : 304 pixels\r\nDisplay aspect ratio             : 2.35:1\r\nFrame rate                       : 25.000 fps\r\nColor space                      : YUV\r\nChroma subsampling               : 4:2:0\r\nBit depth                        : 8 bits\r\nScan type                        : Progressive\r\nCompression mode                 : Lossy\r\nBits/(Pixel*Frame)               : 0.401\r\nStream size                      : 1.55 GiB (85%)\r\nWriting library                  : XviD 1.1.2 (UTC 2006-11-01)\r\n\r\nAudio:\r\n\r\nFormat                           : AC-3\r\nFormat/Info                      : Audio Coding 3\r\nMode extension                   : CM (complete main)\r\nCodec ID                         : 2000\r\nDuration                         : 1h 41mn\r\nBit rate mode                    : Constant\r\nBit rate                         : 384 Kbps\r\nChannel(s)                       : 6 channels\r\nChannel positions                : Front: L C R, Side: L R, LFE\r\nSampling rate                    : 48.0 KHz\r\nBit depth                        : 16 bits\r\nCompression mode                 : Lossy\r\nStream size                      : 278 MiB (15%)\r\nAlignment                        : Aligned on interleaves\r\nInterleave, duration             : 32 ms (0.80 video frame)\r\nInterleave, preload duration     : 64 ms
Hall Pass.avi 1.964 GB
Cover/Hall Pass.jpg 453.331 KB
www.Film-Test.nl.JPG 34.175 KB
Gathering some info...

Register and log in Isohunt and see no captcha anymore!

4000 symbols left
Hash 0DDD1AC9B17D31B47110FB732754D49205E44934

Related torrents for "Hall Pass 2011 DVD9rip English Klam"

Torrent search:

english 2011