imdb
rating

4.7
Branded

Branded (2012)

Science Fiction

Full description

Branded (2012) NTSC RETAIL MENU DD5.1Multi Subs TBS

Size 1.054 GB   0 seeders     Added 2012-09-07 09:55:32

Stream torrent
Starting‥ You need BitLord! Get it from BitLord.com
To download or stream you need BitLord. Visit them at BitLord.com
Branded (2012) NTSC RETAIL MENU DD5.1Multi Subs TBS
Format                                   : AVI
Format/Info                              : Audio Video Interleave
Format profile                           : OpenDML
Format settings                          : rec
File size                                : 1.04 GiB
Duration                                 : 106 min
Overall bit rate                         : 1 293 Kbps
Writing application                      : VirtualDubMod 1.5.10.2 (build 2542/release)
Writing library                          : VirtualDubMod build 2542/release
Original source form                     : MAX TORRENTZ
Copyright                                : SIGISMUNT

Video
ID                                       : 0
Format                                   : MPEG-4 Visual
Format profile                           : Advanced Simple@L5
Format settings, BVOP                    : 2
Format settings, QPel                    : No
Format settings, GMC                     : No warppoints
Format settings, Matrix                  : Default (H.263)
Codec ID                                 : XVID
Codec ID/Hint                            : XviD
Duration                                 : 106 min
Bit rate                                 : 904 Kbps
Width                                    : 624 pixels
Height                                   : 256 pixels
Display aspect ratio                     : 2.40:1
Frame rate                               : 23.976 fps
Color space                              : YUV
Chroma subsampling                       : 4:2:0
Bit depth                                : 8 bits
Scan type                                : Progressive
Compression mode                         : Lossy
Bits/(Pixel*Frame)                       : 0.236
Stream size                              : 931 MiB (70%)
Writing library                          : XviD 1.2.1 (UTC 2008-12-04)

Audio
ID                                       : 1
Format                                   : AC-3
Format/Info                              : Audio Coding 3
Mode extension                           : CM (complete main)
Format settings, Endianness              : Big
Codec ID                                 : 2000
Duration                                 : 106 min
Bit rate mode                            : Constant
Bit rate                                 : 384 Kbps
Channel(s)                               : 6 channels
Channel positions                        : Front: L C R, Side: L R, LFE
Sampling rate                            : 48.0 KHz
Bit depth                                : 16 bits
Compression mode                         : Lossy
Stream size                              : 396 MiB (30%)
Alignment                                : Aligned on interleaves
Interleave, duration                     : 64 ms (1.53 video frames)
Interleave, preload duration             : 192 ms 
Branded (2012) NTSC RETAIL MENU DD5.1Multi Subs TBS/Branded (2012) NTSC RETAIL MENU DD5.1Multi Subs TBS.avi 1.054 GB
Branded (2012) NTSC RETAIL MENU DD5.1Multi Subs TBS/MOVIE.nfo 4.858 KB
Branded (2012) NTSC RETAIL MENU DD5.1Multi Subs TBS/Subs[ENG].srt 136.693 KB
Gathering some info...

Register and log in Isohunt and see no captcha anymore!

4000 symbols left
Hash bf0be9c15fe7436367b7083ebee59049680430f2

Related torrents for "Branded (2012) NTSC RETAIL MENU DD5.1Multi Subs TBS"

Torrent search:

subs 2012