imdb
rating

6.7
The Bourne Legacy

The Bourne Legacy (2012)

Action, Thriller

Full description
quality   screener dvdrip x264 hd bd

The Bourne Legacy (2012) DVDRiP.XviD-ILLUMINATI

Size 1.018 GB   0 seeders     Added 2012-09-08 09:37:34

Stream torrent
Starting‥ You need BitLord! Get it from BitLord.com
To download or stream you need BitLord. Visit them at BitLord.com
The Bourne Legacy (2012) DVDRiP.XviD-ILLUMINATI
Format                                   : AVI
Format/Info                              : Audio Video Interleave
Format profile                           : OpenDML
Format settings                          : rec
File size                                : 9.70 GiB
Duration                                 : 135 min
Overall bit rate                         : 1 293 Kbps
Writing application                      : VirtualDubMod 1.5.10.2 (build 2542/release)
Writing library                          : VirtualDubMod build 2542/release
Original source form                     : MAX TORRENTZ
Copyright                                : SIGISMUNT

Video
ID                                       : 0
Format                                   : MPEG-4 Visual
Format profile                           : Advanced Simple@L5
Format settings, BVOP                    : 2
Format settings, QPel                    : No
Format settings, GMC                     : No warppoints
Format settings, Matrix                  : Default (H.263)
Codec ID                                 : XVID
Codec ID/Hint                            : XviD
Duration                                 : 135 min
Bit rate                                 : 904 Kbps
Width                                    : 624 pixels
Height                                   : 256 pixels
Display aspect ratio                     : 2.40:1
Frame rate                               : 23.976 fps
Color space                              : YUV
Chroma subsampling                       : 4:2:0
Bit depth                                : 8 bits
Scan type                                : Progressive
Compression mode                         : Lossy
Bits/(Pixel*Frame)                       : 0.236
Stream size                              : 931 MiB (70%)
Writing library                          : XviD 1.2.1 (UTC 2008-12-04)

Audio
ID                                       : 1
Format                                   : AC-3
Format/Info                              : Audio Coding 3
Mode extension                           : CM (complete main)
Format settings, Endianness              : Big
Codec ID                                 : 2000
Duration                                 : 135 min
Bit rate mode                            : Constant
Bit rate                                 : 384 Kbps
Channel(s)                               : 6 channels
Channel positions                        : Front: L C R, Side: L R, LFE
Sampling rate                            : 48.0 KHz
Bit depth                                : 16 bits
Compression mode                         : Lossy
Stream size                              : 396 MiB (30%)
Alignment                                : Aligned on interleaves
Interleave, duration                     : 64 ms (1.53 video frames)
Interleave, preload duration             : 192 ms


Plot:

An expansion of the universe from Robert Ludlum's novels, centered on a new hero whose stakes have been triggered by the events of the previous three films.
The Bourne Legacy (2012) DVDRiP.XviD-ILLUMINATI/MOVIE.nfo 4.858 KB
The Bourne Legacy (2012) DVDRiP.XviD-ILLUMINATI/Subs[ENG].srt 136.693 KB
The Bourne Legacy (2012) DVDRiP.XviD-ILLUMINATI/The Bourne Legacy (2012) DVDRiP.XviD-ILLUMINATI.avi 1.018 GB
Gathering some info...

Register and log in Isohunt and see no captcha anymore!

4000 symbols left
Hash bedab01e3a4623e12a3ca60f6e2a757d01f5d5b6

Related torrents for "The Bourne Legacy (2012) DVDRiP.XviD-ILLUMINATI"

Torrent search:

dvdrip 2012