imdb
rating

6.7
The Bourne Legacy

The Bourne Legacy (2012)

Action, Thriller

Full description
quality   screener dvdrip x264 hd bd

The Bourne Legacy (2012) EXTENDED BDRip XviD-AMIABLE

Size 1.017 GB   0 seeders     Added 2012-09-08 09:44:36

Stream torrent
Starting‥ You need BitLord! Get it from BitLord.com
To download or stream you need BitLord. Visit them at BitLord.com
The Bourne Legacy (2012) EXTENDED BDRip XviD-AMIABLE\r\nFormat                                   : AVI\r\nFormat/Info                              : Audio Video Interleave\r\nFormat profile                           : OpenDML\r\nFormat settings                          : rec\r\nFile size                                : 9.69 GiB\r\nDuration                                 : 135 min\r\nOverall bit rate                         : 1 293 Kbps\r\nWriting application                      : VirtualDubMod 1.5.10.2 (build 2542/release)\r\nWriting library                          : VirtualDubMod build 2542/release\r\nOriginal source form                     : MAX TORRENTZ\r\nCopyright                                : SIGISMUNT\r\n\r\nVideo\r\nID                                       : 0\r\nFormat                                   : MPEG-4 Visual\r\nFormat profile                           : Advanced Simple@L5\r\nFormat settings, BVOP                    : 2\r\nFormat settings, QPel                    : No\r\nFormat settings, GMC                     : No warppoints\r\nFormat settings, Matrix                  : Default (H.263)\r\nCodec ID                                 : XVID\r\nCodec ID/Hint                            : XviD\r\nDuration                                 : 135 min\r\nBit rate                                 : 904 Kbps\r\nWidth                                    : 624 pixels\r\nHeight                                   : 256 pixels\r\nDisplay aspect ratio                     : 2.40:1\r\nFrame rate                               : 23.976 fps\r\nColor space                              : YUV\r\nChroma subsampling                       : 4:2:0\r\nBit depth                                : 8 bits\r\nScan type                                : Progressive\r\nCompression mode                         : Lossy\r\nBits/(Pixel*Frame)                       : 0.236\r\nStream size                              : 931 MiB (70%)\r\nWriting library                          : XviD 1.2.1 (UTC 2008-12-04)\r\n\r\nAudio\r\nID                                       : 1\r\nFormat                                   : AC-3\r\nFormat/Info                              : Audio Coding 3\r\nMode extension                           : CM (complete main)\r\nFormat settings, Endianness              : Big\r\nCodec ID                                 : 2000\r\nDuration                                 : 135 min\r\nBit rate mode                            : Constant\r\nBit rate                                 : 384 Kbps\r\nChannel(s)                               : 6 channels\r\nChannel positions                        : Front: L C R, Side: L R, LFE\r\nSampling rate                            : 48.0 KHz\r\nBit depth                                : 16 bits\r\nCompression mode                         : Lossy\r\nStream size                              : 396 MiB (30%)\r\nAlignment                                : Aligned on interleaves\r\nInterleave, duration                     : 64 ms (1.53 video frames)\r\nInterleave, preload duration             : 192 ms\r\n\r\n\r\nPlot:\r\n\r\nAn expansion of the universe from Robert Ludlum\'s novels, centered on a new hero whose stakes have been triggered by the events of the previous three films.
The Bourne Legacy (2012) EXTENDED BDRip XviD-AMIABLE/MOVIE.nfo 4.858 KB
The Bourne Legacy (2012) EXTENDED BDRip XviD-AMIABLE/Subs[ENG].srt 136.693 KB
The Bourne Legacy (2012) EXTENDED BDRip XviD-AMIABLE/The Bourne Legacy (2012) EXTENDED BDRip XviD-AMIABLE.avi 1.017 GB
Gathering some info...

Register and log in Isohunt and see no captcha anymore!

4000 symbols left
Hash 7032fa2320f75c86193dc1db7bcf0d39cf0bbaf0

Related torrents for "The Bourne Legacy (2012) EXTENDED BDRip XviD-AMIABLE"

Torrent search:

2012 bd