imdb
rating

6.7
The Expendables 2

The Expendables 2 (2012)

Action, Adventure, Thriller

Full description

The Expendables 2 (2012) HDRiP.XViD-PSEUDO.torrent

Size 1.099 GB   0 seeders     Added 2012-09-08 11:25:16

Stream torrent
Starting‥ You need BitLord! Get it from BitLord.com
10
To download or stream you need BitLord. Visit them at BitLord.com
The Expendables 2 (2012) HDRiP.XViD-PSEUDO.torrent
Format                                   : AVI
Format/Info                              : Audio Video Interleave
Format profile                           : OpenDML
Format settings                          : rec
File size                                : 1.02 GiB
Duration                                 : 102 min
Overall bit rate                         : 1 791 Kbps
Writing application                      : VirtualDubMod 1.5.10.2 (build 2542/release)
Writing library                          : VirtualDubMod build 2542/release
Original source form                     : MAX TORRENTZ
Copyright                                : SIGISMUNT

Video
ID                                       : 0
Format                                   : MPEG-4 Visual
Format profile                           : Advanced Simple@L5
Format settings, BVOP                    : 2
Format settings, QPel                    : No
Format settings, GMC                     : No warppoints
Format settings, Matrix                  : Default (MPEG)
Codec ID                                 : XVID
Codec ID/Hint                            : XviD
Duration                                 : 103 min
Bit rate                                 : 1 402 Kbps
Width                                    : 720 pixels
Height                                   : 384 pixels
Display aspect ratio                     : 1.85:1
Frame rate                               : 23.976 fps
Color space                              : YUV
Chroma subsampling                       : 4:2:0
Bit depth                                : 8 bits
Scan type                                : Progressive
Compression mode                         : Lossy
Bits/(Pixel*Frame)                       : 0.211
Stream size                              : 1.04 GiB (78%)

Audio
ID                                       : 1
Format                                   : AC-3
Format/Info                              : Audio Coding 3
Mode extension                           : CM (complete main)
Format settings, Endianness              : Big
Codec ID                                 : 2000
Duration                                 : 103 min
Bit rate mode                            : Constant
Bit rate                                 : 384 Kbps
Channel(s)                               : 6 channels
Channel positions                        : Front: L C R, Side: L R, LFE
Sampling rate                            : 48.0 KHz
Bit depth                                : 16 bits
Compression mode                         : Lossy
Stream size                              : 291 MiB (21%)
Alignment                                : Aligned on interleaves
Interleave, duration                     : 64 ms (1.53 video frames)
Interleave, preload duration             : 192 ms


Plot:

Barney Ross is approached by CIA man Church, who wants him and his guns for hire to go to the former Soviet Union to retrieve something that was on a plane that crashed. Church doesn't tell him what he is getting. And Church sends a woman, Maggie with him to make sure he gets it. They find the plane and get the thing but some men take one of Barney's people hostage and the leader tells him to give him what they got or he'll kill his hostage. The give it to him but he kills his hostage anyway. Barney asks Maggie what was so important about that thing. She says that it showed the location of a Russian plutonium mine. Barney decides to track the man down and deal with him. They track them down and discover that the man they seek is Vilain who leads a group known as The Sangs and that they have taken all the men from the surrounding villages to work the mine.
The Expendables 2 (2012) HDRiP.XViD-PSEUDO/MOVIE.nfo 4.858 KB
The Expendables 2 (2012) HDRiP.XViD-PSEUDO/Subs[ENG].srt 136.693 KB
The Expendables 2 (2012) HDRiP.XViD-PSEUDO/The Expendables 2 (2012) HDRiP.XViD-PSEUDO.avi 1.099 GB
Gathering some info...

Register and log in Isohunt and see no captcha anymore!

4000 symbols left
Hash b0dbac8fe1ff0480ac66e7fc612da75948602369

Related torrents for "The Expendables 2 (2012) HDRiP.XViD-PSEUDO.torrent"

Torrent search:

hd 2012