Gianna Nannini - California [EAC FLAC CUE]

Size 256.111 MB   2 seeders     Added 2012-09-09 02:41:57

Stream torrent
Starting‥ You need BitLord! Get it from BitLord.com
To download or stream you need BitLord. Visit them at BitLord.com
[url=http://forum.tntvillage.scambioetico.org/index.php?showtopic=305519].: Click for More info on this torrent :.[/url]\r\n \r\n[b][SIZE=20]Gianna Nannini-California[/SIZE][/b]\r\n\r\n.: Locandina :.\r\n\r\n[img]image[/img]\r\n\r\n.: Scheda :.\r\n\r\n[b]Titolo: [/b]California\r\n[b]Anno:  [/b]1979                                    \r\n[b]Genere: [/b]Pop\r\n[b]Durata: [/b]37m:31s\r\n[b]Produttore: [/b]Michelangelo Romano\r\n[b]Etichetta: [/b]Ricordi\r\n\r\n.: tracklist :.\r\n\r\n[b]1.America\r\n2.California\r\n3.Goodbye My Heart\r\n4.Io e Bobby McGee\r\n5.Sognami\r\n6.La lupa e le stelle\r\n7.Lei[/b]\r\n\r\n[b][ Info file ]\r\n\r\nExact Audio Copy V1.0 beta 3 from 29. August 2011\r\n\r\nEAC extraction logfile from 6. September 2012, 22:55\r\n\r\nGianna Nannini / California\r\n\r\nUsed drive  : SlimtypeDVD A  DS8A4SH   Adapter: 1  ID: 0\r\n\r\nRead mode               : Secure\r\nUtilize accurate stream : Yes\r\nDefeat audio cache      : No\r\nMake use of C2 pointers : No\r\n\r\nRead offset correction                      : 6\r\nOverread into Lead-In and Lead-Out          : No\r\nFill up missing offset samples with silence : Yes\r\nDelete leading and trailing silent blocks   : No\r\nNull samples used in CRC calculations       : Yes\r\nUsed interface                              : Native Win32 interface for Win NT & 2000\r\nGap handling                                : Not detected, thus appended to previous track\r\n\r\nUsed output format              : User Defined Encoder\r\nSelected bitrate                : 768 kBit/s\r\nQuality                         : High\r\nAdd ID3 tag                     : No\r\nCommand line compressor         : C:\\Program Files (x86)\\Exact Audio Copy\\FLAC\\FLAC.EXE\r\n\r\nTOC of the extracted CD\r\n\r\n     Track |   Start  |  Length  | Start sector | End sector \r\n    ---------------------------------------------------------\r\n        1  |  0:00.32 |  4:23.13 |        32    |    19769   \r\n        2  |  4:23.45 |  8:16.22 |     19770    |    56991   \r\n        3  | 12:39.67 |  6:22.43 |     56992    |    85684   \r\n        4  | 19:02.35 |  4:41.40 |     85685    |   106799   \r\n        5  | 23:44.00 |  4:03.27 |    106800    |   125051   \r\n        6  | 27:47.27 |  4:10.48 |    125052    |   143849   \r\n        7  | 31:58.00 |  5:45.27 |    143850    |   169751   \r\n\r\n\r\nTrack  1\r\n\r\n     Filename C:\\Users\\ALAN\\Pictures\\Calfornia\\(1) America-Gianna Nannini.wav\r\n\r\n     Peak level 97.0 %\r\n     Extraction speed 1.8 X\r\n     Track quality 100.0 %\r\n     Test CRC BD7852F9\r\n     Copy CRC BD7852F9\r\n     Track not present in AccurateRip database\r\n     Copy OK\r\n\r\n========================================
(1) America-Gianna Nannini.flac 31.106 MB
(2) California-Gianna Nannini.flac 58.683 MB
(3) Good bye my heart-Gianna Nannini.flac 44.713 MB
Gathering some info...

Register and log in Isohunt and see no captcha anymore!

4000 symbols left
Hash D51F71835B3D900A671963DF15AF939A1057F8E8