imdb
rating

8.0
The Perks of Being a Wallflower

The Perks of Being a Wallflower (2012)

Drama, Romance

Full description
quality   hd bd dvdrip x264 cam

The Perks of Being a Wallflower 2012 DVDRiP XviD - NoGRP

Size 737.873 MB   0 seeders     Added 2012-09-09 02:56:38

Stream torrent
Starting‥ You need BitLord! Get it from 1BitLord.com
To download or stream you need BitLord. Visit them at BitLord.com
[IMG]image[/IMG]\r\n \r\n                          TITLE: \r\n\r\nThe Perks of Being a Wallflower 2012 DVDRiP XviD - NoGRP\r\n\r\n                        IMDB: \r\n\r\nhttp://www.imdb.com/title/tt1659337/\r\n\r\n\r\n                           STATS:\r\n\r\nVideo\r\nID                               : 0\r\nFormat                           : MPEG-4 Visual\r\nFormat profile                   : Advanced Simple@L5\r\nFormat settings, BVOP            : 2\r\nFormat settings, QPel            : No\r\nFormat settings, GMC             : No warppoints\r\nFormat settings, Matrix          : Default (MPEG)\r\nMuxing mode                      : Packed bitstream\r\nCodec ID                         : XVID\r\nCodec ID/Hint                    : XviD\r\nDuration                         : 1h 43mn\r\nBit rate                         : 986 Kbps\r\nWidth                            : 720 pixels\r\nHeight                           : 320 pixels\r\nDisplay aspect ratio             : 2.25:1\r\nFrame rate                       : 29.970 fps\r\nColor space                      : YUV\r\nChroma subsampling               : 4:2:0\r\nBit depth                        : 8 bits\r\nScan type                        : Progressive\r\nCompression mode                 : Lossy\r\nBits/(Pixel*Frame)               : 0.243\r\nStream size                      : 702 MiB (92%)\r\nWriting library                  : XviD 64\r\n\r\n                       Audio\r\n\r\nFormat                           : MPEG Audio\r\nFormat version                   : Version 1\r\nFormat profile                   : Layer 3\r\nMode                             : Joint stereo\r\nMode extension                   : MS Stereo\r\nCodec ID                         : 55\r\nCodec ID/Hint                    : MP3\r\nDuration                         : 1h 43mn\r\nBit rate mode                    : Constant\r\nBit rate                         : 128 Kbps\r\nChannel(s)                       : 2 channels\r\nSampling rate                    : 48.0 KHz\r\nCompression mode                 : Lossy\r\nStream size                      : 51 MiB (7%)\r\nAlignment                        : Split accross interleaves\r\nInterleave, duration             : 33 ms (1.00 video frame)\r\nInterleave, preload duration     : 500 ms\r\n\r\n\r\n                       SCREENS:\r\n\r\n[IMG]image[/IMG]\r\n[IMG]image[/IMG]\r\n[IMG]image[/IMG]
cover.png 558.502 KB
screenshot1.jpg 107.847 KB
screenshot2.jpg 164.391 KB
Gathering some info...

Register and log in Isohunt and see no captcha anymore!

4000 symbols left
Hash E5C52B4F980BFCDFA5B4989D0BCE86F8FDBB2E86

Related torrents for "The Perks of Being a Wallflower 2012 DVDRiP XviD - NoGRP"

Torrent search:

dvdrip 2012