imdb
rating

8.1
The Avengers

The Avengers (2012)

Action, Adventure, Science Fiction

Full description

The Avengers (2012) RETAIL DVDRip XviD AC3-NYDIC

Size 1.014 GB   0 seeders     Added 2012-09-09 17:17:14

Stream torrent
Starting‥ You need BitLord! Get it from BitLord.com
To download or stream you need BitLord. Visit them at BitLord.com
The Avengers (2012) RETAIL DVDRip XviD AC3-NYDIC.torrent\r\nFormat                                   : AVI\r\nFormat/Info                              : Audio Video Interleave\r\nFormat profile                           : OpenDML\r\nFormat settings                          : rec\r\nFile size                                : 9.66 GiB\r\nDuration                                 : 143 min\r\nOverall bit rate                         : 1 791 Kbps\r\nWriting application                      : VirtualDubMod 1.5.10.2 (build 2542/release)\r\nWriting library                          : VirtualDubMod build 2542/release\r\nOriginal source form                     : MAX TORRENTZ\r\nCopyright                                : SIGISMUNT\r\n\r\nVideo\r\nID                                       : 0\r\nFormat                                   : MPEG-4 Visual\r\nFormat profile                           : Advanced Simple@L5\r\nFormat settings, BVOP                    : 2\r\nFormat settings, QPel                    : No\r\nFormat settings, GMC                     : No warppoints\r\nFormat settings, Matrix                  : Default (MPEG)\r\nCodec ID                                 : XVID\r\nCodec ID/Hint                            : XviD\r\nDuration                                 : 143 min\r\nBit rate                                 : 1 402 Kbps\r\nWidth                                    : 720 pixels\r\nHeight                                   : 384 pixels\r\nDisplay aspect ratio                     : 1.85:1\r\nFrame rate                               : 23.976 fps\r\nColor space                              : YUV\r\nChroma subsampling                       : 4:2:0\r\nBit depth                                : 8 bits\r\nScan type                                : Progressive\r\nCompression mode                         : Lossy\r\nBits/(Pixel*Frame)                       : 0.211\r\nStream size                              : 1.04 GiB (78%)\r\n\r\nAudio\r\nID                                       : 1\r\nFormat                                   : AC-3\r\nFormat/Info                              : Audio Coding 3\r\nMode extension                           : CM (complete main)\r\nFormat settings, Endianness              : Big\r\nCodec ID                                 : 2000\r\nDuration                                 : 143 min\r\nBit rate mode                            : Constant\r\nBit rate                                 : 384 Kbps\r\nChannel(s)                               : 6 channels\r\nChannel positions                        : Front: L C R, Side: L R, LFE\r\nSampling rate                            : 48.0 KHz\r\nBit depth                                : 16 bits\r\nCompression mode                         : Lossy\r\nStream size                              : 291 MiB (21%)\r\nAlignment                                : Aligned on interleaves\r\nInterleave, duration                     : 64 ms (1.53 video frames)\r\nInterleave, preload duration             : 192 ms\r\n\r\n\r\nPlot:\r\n\r\nNick Fury of S.H.I.E.L.D. brings together a team of super humans to form The Avengers to help save the Earth from Loki and his army.
The Avengers (2012) RETAIL DVDRip XviD AC3-NYDIC/MOVIE.nfo 4.858 KB
The Avengers (2012) RETAIL DVDRip XviD AC3-NYDIC/Subs[ENG].srt 136.693 KB
The Avengers (2012) RETAIL DVDRip XviD AC3-NYDIC/The Avengers (2012) RETAIL DVDRip XviD AC3-NYDIC.avi 1.014 GB
Gathering some info...

Register and log in Isohunt and see no captcha anymore!

4000 symbols left
Hash e17f79c569015a9fcd60c8177ccde043aa3e8c57

Related torrents for "The Avengers (2012) RETAIL DVDRip XviD AC3-NYDIC"

Torrent search:

dvdrip 2012