imdb
rating

7.3
Lawless

Lawless (2012)

Crime, Drama

Full description
quality   cam x264 dvdrip hd telesync dvd

Lawless (2012) HDRiP.XViD-PSEUDO.torrent

Size 1.046 GB   0 seeders     Added 2012-09-10 11:52:21

Stream torrent
Starting‥ You need BitLord! Get it from BitLord.com
To download or stream you need BitLord. Visit them at BitLord.com
Lawless (2012) HDRiP.XViD-PSEUDO.torrent
Format                                   : AVI
Format/Info                              : Audio Video Interleave
Format profile                           : OpenDML
Format settings                          : rec
File size                                : 9.97 GiB
Duration                                 : 116 min
Overall bit rate                         : 1 791 Kbps
Writing application                      : VirtualDubMod 1.5.10.2 (build 2542/release)
Writing library                          : VirtualDubMod build 2542/release
Original source form                     : MAX TORRENTZ
Copyright                                : SIGISMUNT

Video
ID                                       : 0
Format                                   : MPEG-4 Visual
Format profile                           : Advanced Simple@L5
Format settings, BVOP                    : 2
Format settings, QPel                    : No
Format settings, GMC                     : No warppoints
Format settings, Matrix                  : Default (MPEG)
Codec ID                                 : XVID
Codec ID/Hint                            : XviD
Duration                                 : 116 min
Bit rate                                 : 1 402 Kbps
Width                                    : 720 pixels
Height                                   : 384 pixels
Display aspect ratio                     : 1.85:1
Frame rate                               : 23.976 fps
Color space                              : YUV
Chroma subsampling                       : 4:2:0
Bit depth                                : 8 bits
Scan type                                : Progressive
Compression mode                         : Lossy
Bits/(Pixel*Frame)                       : 0.211
Stream size                              : 1.04 GiB (78%)

Audio
ID                                       : 1
Format                                   : AC-3
Format/Info                              : Audio Coding 3
Mode extension                           : CM (complete main)
Format settings, Endianness              : Big
Codec ID                                 : 2000
Duration                                 : 116 min
Bit rate mode                            : Constant
Bit rate                                 : 384 Kbps
Channel(s)                               : 6 channels
Channel positions                        : Front: L C R, Side: L R, LFE
Sampling rate                            : 48.0 KHz
Bit depth                                : 16 bits
Compression mode                         : Lossy
Stream size                              : 291 MiB (21%)
Alignment                                : Aligned on interleaves
Interleave, duration                     : 64 ms (1.53 video frames)
Interleave, preload duration             : 192 ms


Storyline:

The three Bondurant brothers run a bootlegging operation during the depression, up in the mountains of Franklin County, Virginia. Crooked Special Deputy Charles Rakes is after a share of the brothers' profits. Compounding their troubles, the local competition is elbowing in on their activities. Forrest's boisterous defiance and Cricket's knack for moonshine production help the brothers gain a local monopoly. When Forrest is wounded as tension with Rakes escalates, Jack, initially the timid one, must prove his worth against gangster Floyd Banner's mob, and we see him metamorphose into a cocky exhibitionist in his attempts to woo the off-limits preacher's daughter, Bertha.
Lawless (2012) HDRiP.XViD-PSEUDO/Lawless (2012) HDRiP.XViD-PSEUDO.avi 1.046 GB
Lawless (2012) HDRiP.XViD-PSEUDO/MOVIE.nfo 4.858 KB
Lawless (2012) HDRiP.XViD-PSEUDO/Subs[ENG].srt 136.693 KB
Gathering some info...

Register and log in Isohunt and see no captcha anymore!

4000 symbols left
Hash 476de672467563ccf3300b147e6000606584d7d2

Related torrents for "Lawless (2012) HDRiP.XViD-PSEUDO.torrent"

Torrent search:

hd 2012