imdb
rating

6.7
The Bourne Legacy

The Bourne Legacy (2012)

Action, Thriller

Full description
quality   screener dvdrip x264 hd bd

The Bourne Legacy (2012) EXTENDED DVDRip XviD-AMIABLE

Size 1.055 GB   0 seeders     Added 2012-09-10 12:01:36

Stream torrent
Starting‥ You need BitLord! Get it from 1BitLord.com
To download or stream you need BitLord. Visit them at BitLord.com
The Bourne Legacy (2012) EXTENDED DVDRip XviD-AMIABLE\r\nFormat                                   : AVI\r\nFormat/Info                              : Audio Video Interleave\r\nFormat profile                           : OpenDML\r\nFormat settings                          : rec\r\nFile size                                : 1.05 GiB\r\nDuration                                 : 135 min\r\nOverall bit rate                         : 1 791 Kbps\r\nWriting application                      : VirtualDubMod 1.5.10.2 (build 2542/release)\r\nWriting library                          : VirtualDubMod build 2542/release\r\nOriginal source form                     : MAX TORRENTZ\r\nCopyright                                : SIGISMUNT\r\n\r\nVideo\r\nID                                       : 0\r\nFormat                                   : MPEG-4 Visual\r\nFormat profile                           : Advanced Simple@L5\r\nFormat settings, BVOP                    : 2\r\nFormat settings, QPel                    : No\r\nFormat settings, GMC                     : No warppoints\r\nFormat settings, Matrix                  : Default (MPEG)\r\nCodec ID                                 : XVID\r\nCodec ID/Hint                            : XviD\r\nDuration                                 : 135 min\r\nBit rate                                 : 1 402 Kbps\r\nWidth                                    : 720 pixels\r\nHeight                                   : 384 pixels\r\nDisplay aspect ratio                     : 1.85:1\r\nFrame rate                               : 23.976 fps\r\nColor space                              : YUV\r\nChroma subsampling                       : 4:2:0\r\nBit depth                                : 8 bits\r\nScan type                                : Progressive\r\nCompression mode                         : Lossy\r\nBits/(Pixel*Frame)                       : 0.211\r\nStream size                              : 1.04 GiB (78%)\r\n\r\nAudio\r\nID                                       : 1\r\nFormat                                   : AC-3\r\nFormat/Info                              : Audio Coding 3\r\nMode extension                           : CM (complete main)\r\nFormat settings, Endianness              : Big\r\nCodec ID                                 : 2000\r\nDuration                                 : 135 min\r\nBit rate mode                            : Constant\r\nBit rate                                 : 384 Kbps\r\nChannel(s)                               : 6 channels\r\nChannel positions                        : Front: L C R, Side: L R, LFE\r\nSampling rate                            : 48.0 KHz\r\nBit depth                                : 16 bits\r\nCompression mode                         : Lossy\r\nStream size                              : 291 MiB (21%)\r\nAlignment                                : Aligned on interleaves\r\nInterleave, duration                     : 64 ms (1.53 video frames)\r\nInterleave, preload duration             : 192 ms\r\n\r\n\r\nPlot:\r\n\r\nAn expansion of the universe from Robert Ludlum\'s novels, centered on a new hero whose stakes have been triggered by the events of the previous three films.
The Bourne Legacy (2012) EXTENDED DVDRip XviD-AMIABLE/MOVIE.nfo 4.858 KB
The Bourne Legacy (2012) EXTENDED DVDRip XviD-AMIABLE/Subs[ENG].srt 136.693 KB
The Bourne Legacy (2012) EXTENDED DVDRip XviD-AMIABLE/The Bourne Legacy (2012) EXTENDED DVDRip XviD-AMIABLE.avi 1.055 GB
Gathering some info...

Register and log in Isohunt and see no captcha anymore!

4000 symbols left
Hash 5e02d17471984d57f30fdcdf45755a749ea18b65

Related torrents for "The Bourne Legacy (2012) EXTENDED DVDRip XviD-AMIABLE"

Torrent search:

dvdrip 2012