imdb
rating

4.6
Retribution

Retribution (2013)

TV Movie, Thriller

Full description

Resident Evil Retribution (2012) R5 DVDRip XviD 4PlayHD.torrent

Size 903.864 MB   0 seeders     Added 2012-09-11 09:26:16

Stream torrent
Starting‥ You need BitLord! Get it from BitLord.com
To download or stream you need BitLord. Visit them at BitLord.com
Resident Evil Retribution (2012) R5 DVDRip XviD 4PlayHD.torrent
Format                                   : AVI
Format/Info                              : Audio Video Interleave
Format profile                           : OpenDML
Format settings                          : rec
File size                                : 861.99 MB
Duration                                 : 95 min
Overall bit rate                         : 1 791 Kbps
Writing application                      : VirtualDubMod 1.5.10.2 (build 2542/release)
Writing library                          : VirtualDubMod build 2542/release
Original source form                     : MAX TORRENTZ
Copyright                                : SIGISMUNT

Video
ID                                       : 0
Format                                   : MPEG-4 Visual
Format profile                           : Advanced Simple@L5
Format settings, BVOP                    : 2
Format settings, QPel                    : No
Format settings, GMC                     : No warppoints
Format settings, Matrix                  : Default (MPEG)
Codec ID                                 : XVID
Codec ID/Hint                            : XviD
Duration                                 : 95 min
Bit rate                                 : 1 402 Kbps
Width                                    : 720 pixels
Height                                   : 384 pixels
Display aspect ratio                     : 1.85:1
Frame rate                               : 23.976 fps
Color space                              : YUV
Chroma subsampling                       : 4:2:0
Bit depth                                : 8 bits
Scan type                                : Progressive
Compression mode                         : Lossy
Bits/(Pixel*Frame)                       : 0.211
Stream size                              : 1.04 GiB (78%)

Audio
ID                                       : 1
Format                                   : AC-3
Format/Info                              : Audio Coding 3
Mode extension                           : CM (complete main)
Format settings, Endianness              : Big
Codec ID                                 : 2000
Duration                                 : 95 min
Bit rate mode                            : Constant
Bit rate                                 : 384 Kbps
Channel(s)                               : 6 channels
Channel positions                        : Front: L C R, Side: L R, LFE
Sampling rate                            : 48.0 KHz
Bit depth                                : 16 bits
Compression mode                         : Lossy
Stream size                              : 291 MiB (21%)
Alignment                                : Aligned on interleaves
Interleave, duration                     : 64 ms (1.53 video frames)
Interleave, preload duration             : 192 ms
Resident Evil Retribution (2012) R5 DVDRip XviD 4PlayHD/MOVIE.nfo 4.858 KB
Resident Evil Retribution (2012) R5 DVDRip XviD 4PlayHD/Resident Evil Retribution (2012) R5 DVDRip XviD 4PlayHD.avi 903.722 MB
Resident Evil Retribution (2012) R5 DVDRip XviD 4PlayHD/Subs[ENG].srt 136.693 KB
Gathering some info...

Register and log in Isohunt and see no captcha anymore!

4000 symbols left
Hash a1e9728bde39d79035cefc7bb37b5ce52478b34f

Related torrents for "Resident Evil Retribution (2012) R5 DVDRip XviD 4PlayHD.torrent"

Torrent search:

dvdrip 2012 dvd