imdb
rating

6.7
The Bourne Legacy

The Bourne Legacy (2012)

Action, Thriller

Full description
quality   screener dvdrip x264 hd bd

The Bourne Legacy (2012) HDRIP 720p x264-Lucif3r.torrent

Size 938.467 MB   0 seeders     Added 2012-09-11 09:52:28

Stream torrent
Starting‥ You need BitLord! Get it from BitLord.com
5.8
To download or stream you need BitLord. Visit them at BitLord.com
The Bourne Legacy (2012) HDRIP 720p x264-Lucif3r.torrent
Format                                   : AVI
Format/Info                              : Audio Video Interleave
Format profile                           : OpenDML
Format settings                          : rec
File size                                : 894.99 MB
Duration                                 : 135 min
Overall bit rate                         : 1 791 Kbps
Writing application                      : VirtualDubMod 1.5.10.2 (build 2542/release)
Writing library                          : VirtualDubMod build 2542/release
Original source form                     : MAX TORRENTZ
Copyright                                : SIGISMUNT

Video
ID                                       : 0
Format                                   : MPEG-4 Visual
Format profile                           : Advanced Simple@L5
Format settings, BVOP                    : 2
Format settings, QPel                    : No
Format settings, GMC                     : No warppoints
Format settings, Matrix                  : Default (MPEG)
Codec ID                                 : XVID
Codec ID/Hint                            : XviD
Duration                                 : 135 min
Bit rate                                 : 1 402 Kbps
Width                                    : 720 pixels
Height                                   : 384 pixels
Display aspect ratio                     : 1.85:1
Frame rate                               : 23.976 fps
Color space                              : YUV
Chroma subsampling                       : 4:2:0
Bit depth                                : 8 bits
Scan type                                : Progressive
Compression mode                         : Lossy
Bits/(Pixel*Frame)                       : 0.211
Stream size                              : 1.04 GiB (78%)

Audio
ID                                       : 1
Format                                   : AC-3
Format/Info                              : Audio Coding 3
Mode extension                           : CM (complete main)
Format settings, Endianness              : Big
Codec ID                                 : 2000
Duration                                 : 135 min
Bit rate mode                            : Constant
Bit rate                                 : 384 Kbps
Channel(s)                               : 6 channels
Channel positions                        : Front: L C R, Side: L R, LFE
Sampling rate                            : 48.0 KHz
Bit depth                                : 16 bits
Compression mode                         : Lossy
Stream size                              : 291 MiB (21%)
Alignment                                : Aligned on interleaves
Interleave, duration                     : 64 ms (1.53 video frames)
Interleave, preload duration             : 192 ms
The Bourne Legacy (2012) HDRIP 720p x264-Lucif3r/MOVIE.nfo 4.858 KB
The Bourne Legacy (2012) HDRIP 720p x264-Lucif3r/Subs[ENG].srt 136.693 KB
The Bourne Legacy (2012) HDRIP 720p x264-Lucif3r/The Bourne Legacy (2012) HDRIP 720p x264-Lucif3r.avi 938.325 MB
Gathering some info...

Register and log in Isohunt and see no captcha anymore!

4000 symbols left
Hash 185a4a69583c2be533b2c650aa11732cb5d76baa

Related torrents for "The Bourne Legacy (2012) HDRIP 720p x264-Lucif3r.torrent"

Torrent search:

x264 hd 2012