imdb
rating

8.5
The Dark Knight Rises

The Dark Knight Rises (2012)

Action, Crime, Drama, Thriller

Full description

The Dark Knight Rises (2012) 720p.BluRay.DTS.x264-NYDIC [PublicHD].torrent

Size 897.572 MB   0 seeders     Added 2012-09-11 10:04:00

Stream torrent
Starting‥ You need BitLord! Get it from BitLord.com
To download or stream you need BitLord. Visit them at BitLord.com
The Dark Knight Rises (2012) 720p.BluRay.DTS.x264-NYDIC [PublicHD].torrent
Format                                   : AVI
Format/Info                              : Audio Video Interleave
Format profile                           : OpenDML
Format settings                          : rec
File size                                : 855.99 MB
Duration                                 : 165 min
Overall bit rate                         : 1 791 Kbps
Writing application                      : VirtualDubMod 1.5.10.2 (build 2542/release)
Writing library                          : VirtualDubMod build 2542/release
Original source form                     : MAX TORRENTZ
Copyright                                : SIGISMUNT

Video
ID                                       : 0
Format                                   : MPEG-4 Visual
Format profile                           : Advanced Simple@L5
Format settings, BVOP                    : 2
Format settings, QPel                    : No
Format settings, GMC                     : No warppoints
Format settings, Matrix                  : Default (MPEG)
Codec ID                                 : XVID
Codec ID/Hint                            : XviD
Duration                                 : 165 min
Bit rate                                 : 1 402 Kbps
Width                                    : 720 pixels
Height                                   : 384 pixels
Display aspect ratio                     : 1.85:1
Frame rate                               : 23.976 fps
Color space                              : YUV
Chroma subsampling                       : 4:2:0
Bit depth                                : 8 bits
Scan type                                : Progressive
Compression mode                         : Lossy
Bits/(Pixel*Frame)                       : 0.211
Stream size                              : 1.04 GiB (78%)

Audio
ID                                       : 1
Format                                   : AC-3
Format/Info                              : Audio Coding 3
Mode extension                           : CM (complete main)
Format settings, Endianness              : Big
Codec ID                                 : 2000
Duration                                 : 165 min
Bit rate mode                            : Constant
Bit rate                                 : 384 Kbps
Channel(s)                               : 6 channels
Channel positions                        : Front: L C R, Side: L R, LFE
Sampling rate                            : 48.0 KHz
Bit depth                                : 16 bits
Compression mode                         : Lossy
Stream size                              : 291 MiB (21%)
Alignment                                : Aligned on interleaves
Interleave, duration                     : 64 ms (1.53 video frames)
Interleave, preload duration             : 192 ms
The Dark Knight Rises (2012) 720p.BluRay.DTS.x264-NYDIC [PublicHD]/MOVIE.nfo 4.858 KB
The Dark Knight Rises (2012) 720p.BluRay.DTS.x264-NYDIC [PublicHD]/Subs[ENG].srt 136.693 KB
The Dark Knight Rises (2012) 720p.BluRay.DTS.x264-NYDIC [PublicHD]/The Dark Knight Rises (2012) 720p.BluRay.DTS.x264-NYDIC [PublicHD].avi 897.43 MB
Gathering some info...

Register and log in Isohunt and see no captcha anymore!

4000 symbols left
Hash faae52f66fff88e86a274825cf80e59cd9646fcc

Related torrents for "The Dark Knight Rises (2012) 720p.BluRay.DTS.x264-NYDIC [PublicHD].torrent"

Torrent search:

x264 hd 2012 bd