imdb
rating

6.6
The Odd Life of Timothy Green

The Odd Life of Timothy Green (2012)

Comedy, Drama, Fantasy, Family

Full description
quality   fullhd screener dvdrip hd bd x264

The Odd Life of Timothy Green 2012 DVDRip XviD-PRiMOR

Size 722.622 MB   0 seeders     Added 2012-09-12 22:43:33

Stream torrent
Starting‥ You need BitLord! Get it from BitLord.com
To download or stream you need BitLord. Visit them at BitLord.com
Video
ID                               : 0
Format                           : MPEG-4 Visual
Format profile                   : Advanced Simple@L5
Format settings, BVOP            : Yes
Format settings, QPel            : No
Format settings, GMC             : No warppoints
Format settings, Matrix          : Default (H.263)
Codec ID                         : XVID
Codec ID/Hint                    : XviD
Duration                         : 1h 41mn
Bit rate                         : 827 Kbps
Width                            : 640 pixels
Height                           : 272 pixels
Display aspect ratio             : 2.35:1
Frame rate                       : 23.976 fps
Color space                      : YUV
Chroma subsampling               : 4:2:0
Bit depth                        : 8 bits
Scan type                        : Progressive
Bits/(Pixel*Frame)               : 0.198
Stream size                      : 598 MiB (85%)
Writing library                  : XviD 61
Audio
ID                               : 1
Format                           : MPEG Audio
Format version                   : Version 1
Format profile                   : Layer 3
Mode                             : Joint stereo
Mode extension                   : MS Stereo
Codec ID                         : 55
Codec ID/Hint                    : MP3
Duration                         : 1h 41mn
Bit rate mode                    : Variable
Bit rate                         : 129 Kbps
Channel(s)                       : 2 channels
Sampling rate                    : 48.0 KHz
Stream size                      : 93.5 MiB (13%)
Alignment                        : Aligned on interleaves
Interleave, duration             : 24 ms (0.58 video frame)
Interleave, preload duration     : 136 ms
Writing library                  : LAME3.93
The Odd Life of Timothy Green 2012 DVDRip XviD-PRiMOR/The Odd Life of Timothy Green (2012).wmv 722.549 MB
The Odd Life of Timothy Green 2012 DVDRip XviD-PRiMOR/Subtitle.srt 66.326 KB
The Odd Life of Timothy Green 2012 DVDRip XviD-PRiMOR/info.nfo 6.41 KB
Gathering some info...

Register and log in Isohunt and see no captcha anymore!

4000 symbols left
Hash 7ab3127100a96d5331b4c506371238351a76648c

Related torrents for "The Odd Life of Timothy Green 2012 DVDRip XviD-PRiMOR"

Torrent search:

dvdrip 2012