imdb
rating

6.1
The Tailor of Panama

The Tailor of Panama (2001)

Comedy, Drama, Thriller

Full description
quality   dvdrip bd dvdr hd x264 h264 fullhd

The Tailor of Panama

Size 1.923 GB   0 seeders     Added 2012-09-13 02:50:09

Stream torrent
Starting‥ You need BitLord! Get it from BitLord.com
To download or stream you need BitLord. Visit them at BitLord.com
[img] image[/img]\r\n\r\nWith: Pierce Brosnan, Geoffrey Rush and Jamie Lee Curtis\r\n\r\nDe Britse spion Andy Osnard wordt ter afkoeling naar Panama gestuurd, om te onderzoeken wat de president aldaar van plan is met het Panama Kanaal. Eenmaal daar zoekt hij een plaatselijke klerenmaker Harry Pendel op, die vanwege zijn beroep in contact staat vele hoge politici, in een poging informatie uit hem te persen. Pendel besluit allerlei informatie te verzinnen om Osnard tevreden te stellen.\r\n\r\nA tailor living in Panama reluctantly becomes a spy for a British agent. \r\n\r\nhttp://www.imdb.com/title/tt0236784\r\n\r\n[COLOR=#DD0000]------------------------ Dutch Friends ------------------------\r\n---------------------------------------------------------------\r\n- Bezoek ook eens mijn vrienden op:  http://www.Film-Test.nl --\r\n----- voor mijn Nederlandse Sync. ondertitels ---- en meer ----\r\n------- http://www.Film-Test.nl ---- voor Films en meer -------\r\n---------------------------------------------------------------[/COLOR]\r\n\r\nGeneral:\r\n\r\nComplete name                    : The Tailor of Panama\\The Tailor of Panama.avi\r\nFormat                           : AVI\r\nFormat/Info                      : Audio Video Interleave\r\nFile size                        : 1.79 GiB\r\nDuration                         : 1h 45mn\r\nOverall bit rate                 : 2 439 Kbps\r\n\r\nVideo:\r\n\r\nFormat                           : MPEG-4 Visual\r\nFormat profile                   : Simple@L3\r\nFormat settings, BVOP            : No\r\nFormat settings, QPel            : No\r\nFormat settings, GMC             : No warppoints\r\nFormat settings, Matrix          : Default (H.263)\r\nCodec ID                         : XVID\r\nCodec ID/Hint                    : XviD\r\nDuration                         : 1h 45mn\r\nBit rate                         : 1 980 Kbps\r\nWidth                            : 720 pixels\r\nHeight                           : 304 pixels\r\nDisplay aspect ratio             : 2.35:1\r\nFrame rate                       : 25.000 fps\r\nColor space                      : YUV\r\nChroma subsampling               : 4:2:0\r\nBit depth                        : 8 bits\r\nScan type                        : Progressive\r\nCompression mode                 : Lossy\r\nBits/(Pixel*Frame)               : 0.362\r\nStream size                      : 1.45 GiB (81%)\r\nWriting library                  : XviD 1.1.2 (UTC 2006-11-01)\r\n\r\nAudio:\r\n\r\nFormat                           : AC-3\r\nFormat/Info                      : Audio Coding 3\r\nMode extension                   : CM (complete main)\r\nCodec ID                         : 2000\r\nDuration                         : 1h 45mn\r\nBit rate mode                    : Constant\r\nBit rate                         : 448 Kbps\r\nChannel(s)                       : 6 channels\r\nChannel positions                : Front: L C R, Side: L R, LFE\r\nSampling rate                    : 48.0 KHz\r\nBit depth                        : 16 bits\r\nCompression mode                 : Lossy\r\nStream size                      : 337 MiB (18%)\r\nAlignment                        : Aligned on interleaves\r\nInterleave, duration             : 32 ms (0.80 video frame)\r\nInterleave, preload duration     : 512 ms
The Tailor of Panama.avi 1.923 GB
Cover/The Tailor of Panama.jpg 144.104 KB
www.Film-Test.nl.JPG 34.175 KB
Gathering some info...

Register and log in Isohunt and see no captcha anymore!

4000 symbols left
Hash 9BE24C3CD1FA3B5A28FA719894872AEA73F494ED

Related torrents for "The Tailor of Panama"