imdb
rating

5.9
The Possession

The Possession (2012)

Horror, Thriller

Full description

The Possession 2012 HDTS XViD-FANTA

Size 719.562 MB   0 seeders     Added 2012-09-16 02:53:02

Stream torrent
Starting‥ You need BitLord! Get it from BitLord.com
To download or stream you need BitLord. Visit them at BitLord.com
Video\r\nID : 0\r\nFormat : MPEG-4 Visual\r\nFormat profile : Advanced Simple@L5\r\nFormat settings, BVOP : 2\r\nFormat settings, QPel : No\r\nFormat settings, GMC : No warppoints\r\nFormat settings, Matrix : Default (H.263)\r\nMuxing mode : Packed bitstream\r\nCodec ID : XVID\r\nCodec ID/Hint : XviD\r\nDuration : 1h 21mn\r\nBit rate : 1 062 Kbps\r\nWidth : 640 pixels\r\nHeight : 336 pixels\r\nDisplay aspect ratio : 1.905\r\nFrame rate : 25.000 fps\r\nColor space : YUV\r\nChroma subsampling : 4:2:0\r\nBit depth : 8 bits\r\nScan type : Progressive\r\nCompression mode : Lossy\r\nBits/(Pixel*Frame) : 0.197\r\nStream size : 619 MiB (88%)\r\nWriting library : XviD 1.2.1 (UTC 2008-12-04)\r\n\r\nAudio\r\nID : 1\r\nFormat : MPEG Audio\r\nFormat version : Version 1\r\nFormat profile : Layer 3\r\nMode : Joint stereo\r\nMode extension : MS Stereo\r\nCodec ID : 55\r\nCodec ID/Hint : MP3\r\nDuration : 1h 21mn\r\nBit rate mode : Variable\r\nBit rate : 128 Kbps\r\nChannel(s) : 2 channels\r\nSampling rate : 48.0 KHz\r\nCompression mode : Lossy\r\nStream size : 73.2 MiB (10%)\r\nAlignment : Aligned on interleaves\r\nInterleave, duration : 24 ms (0.60 video frame)\r\nInterleave, preload duration : 128 ms\r\nWriting library : LAME3.90.3
info.nfo 6.41 KB
Readme.txt 646 B
Subtitle.srt 66.326 KB
Gathering some info...

Register and log in Isohunt and see no captcha anymore!

4000 symbols left
Hash B4E83927F49F773EB1F6C4A83A19EDC5E425B7D7

Related torrents for "The Possession 2012 HDTS XViD-FANTA"

Torrent search:

2012