Madagascar 3 Bons Baisers DEurope 2012 DVD-RiP XViD-4PlayHD

Size 727.835 MB   0 seeders     Added 2012-09-16 02:57:16

Stream torrent
Starting‥ You need BitLord! Get it from BitLord.com
10
To download or stream you need BitLord. Visit them at BitLord.com
Madagascar 3, Bons Baisers D’Europe 2012.DVD-RiP.XViD-4PlayHD\r\n\r\nDate de sortie   6 juin 2012 (1h 33min) \r\nRéalisé par   Eric Darnell, Tom McGrath, Conrad Vernon\r\nAvec   Ben Stiller, Chris Rock, David Schwimmer plus\r\nGenre   Animation, Aventure, Comédie\r\nNationalité   Américain\r\n\r\n\r\n\r\nSynopsis et détails\r\nA partir de 3 ans \r\n\r\nDe retour d’Afrique, où leur dernière aventure les avait menés, Alex et ses fidèles amis Marty, Gloria et Melman aspirent désormais à rentrer chez eux, à New York, et à retrouver le cadre familier du zoo de Central Park. Autant dire qu’ils sont prêts à tout pour y parvenir ! Alors que King Julian, Maurice et les Pingouins se joignent à eux, leur nouvelle expédition rocambolesque les conduit en Europe où ils trouvent la couverture idéale : un cirque ambulant dont ils deviennent les héros – façon Madagascar bien sûr !\r\n\r\n\r\n\r\n\r\n   \r\n\r\nFormat                                   : AVI\r\nFormat/Info                              : Audio Video Interleave\r\nFile size                                : 700mB\r\nDuration                                 : 1h 33mn\r\nOverall bit rate                         : 2 361 Kbps\r\nWriting library                          : VirtualDub build 32839/release\r\n\r\nVideo\r\nID                                       : 214564\r\nFormat                                   : MPEG-4 Visual\r\nFormat profile                           : Advanced Simple@L5\r\nFormat settings, BVOP                    : 2\r\nFormat settings, QPel                    : No\r\nFormat settings, GMC                     : No warppoints\r\nFormat settings, Matrix                  : Default (H.263)\r\nMuxing mode                              : Packed bitstream\r\nCodec ID                                 : XVID\r\nCodec ID/Hint                            : XviD\r\nDuration                                 : 1h 33mn\r\nBit rate                                 : 2 222 Kbps\r\nWidth                                    : 720 pixels\r\nHeight                                   : 384 pixels\r\nDisplay aspect ratio                     : 1.875\r\nFrame rate                               : 29.970 fps\r\nColor space                              : YUV\r\nChroma subsampling                       : 4:2:0\r\nBit depth                                : 8 bits\r\nScan type                                : Progressive\r\nCompression mode                         : Lossy\r\nBits/(Pixel*Frame)                       : 0.268\r\nStream size                              : 1.29 GiB (94%)\r\nWriting library                          : XviD 1.2.1 (UTC 2008-12-04)\r\n\r\nAudio\r\nID                                       : 1\r\nFormat                                   : MPEG Audio\r\nFormat version                           : Version 1\r\nFormat profile                           : Layer 3\r\nMode                                     : Joint stereo\r\nMode extension                           : MS Stereo\r\nCodec ID                                 : 55\r\nCodec ID/Hint                            : MP3\r\nDuration                                 : 1h 33mn\r\nBit rate mode                            : Constant\r\nBit rate                                 : 256 Kbps\r\nChannel(s)                               : 2 channels\r\nSampling rate                            : 44.1 KHz\r\nCompression mode                         : Lossy\r\nStream size                              : 75.8 MiB (5%)\r\nAlignment                                : Split accross interleaves\r\nInterleave, duration                     : 33 ms (1.00 video frame)\r\nWriting library                          : LAME3.98
Madagascar 3, Bons Baisers D’Europe 2012.DVD-RiP.XViD-4PlayHD/Madagascar 3, Bons Baisers D’Europe 2012.DVD-RiP.XViD-4PlayHD.nfo 3.511 KB
Madagascar 3, Bons Baisers D’Europe 2012.DVD-RiP.XViD-4PlayHD/Madagascar 3, Bons Baisers D’Europe 2012.DVD-RiP.XViD-4PlayHD.rar 727.831 MB
Madagascar 3, Bons Baisers D’Europe 2012.DVD-RiP.XViD-4PlayHD/Madagascar 3, Bons Baisers D’Europe 2012.DVD-RiP.XViD-4PlayHD.txt 670 B
Gathering some info...

Register and log in Isohunt and see no captcha anymore!

4000 symbols left
Hash 1BCE7E7EEDE5764D6A89C8C1ADEBED2E2FCB67E7

Related torrents for "Madagascar 3 Bons Baisers DEurope 2012 DVD-RiP XViD-4PlayHD"

Torrent search:

2012