imdb
rating

5.1
The Son of No One

The Son of No One (2011)

Crime, Drama, Thriller

Full description
quality   dvdr bd dvdrip x264 hd

The Son of no One

Size 1.736 GB   0 seeders     Added 2012-09-17 02:48:28

Stream torrent
Starting‥ You need BitLord! Get it from BitLord.com
To download or stream you need BitLord. Visit them at BitLord.com
[img] image[/img]\r\n\r\nWith: Channing Tatum, Al Pacino and Katie Holmes\r\n\r\n'The Son of No One' vertelt het verhaal over de jonge agent Jonathan White (Channing Tatum). Jonathan keert terug naar zijn roots om daar bij de politie te werken. Hij heeft echter een diep geworteld geheim waardoor zijn eigen leven en familie in gevaar komen.\r\n\r\nA young cop is assigned to a precinct in the working class neighborhood where he grew up, and an old secret threatens to destroy his life and his family. \r\n\r\nhttp://www.imdb.com/title/tt1535612\r\n\r\n[COLOR=#DD0000]------------------------ Dutch Friends ------------------------\r\n---------------------------------------------------------------\r\n- Bezoek ook eens mijn vrienden op:  http://www.Film-Test.nl --\r\n----- voor mijn Nederlandse Sync. ondertitels ---- en meer ----\r\n------- http://www.Film-Test.nl ---- voor Films en meer -------\r\n---------------------------------------------------------------[/COLOR]\r\n\r\nGeneral:\r\n\r\nComplete name                    : The Son of no One\\The Son of No One.avi\r\nFormat                           : AVI\r\nFormat/Info                      : Audio Video Interleave\r\nFile size                        : 1.62 GiB\r\nDuration                         : 1h 38mn\r\nOverall bit rate                 : 2 358 Kbps\r\n\r\nVideo:\r\n\r\nFormat                           : MPEG-4 Visual\r\nFormat profile                   : Simple@L3\r\nFormat settings, BVOP            : No\r\nFormat settings, QPel            : No\r\nFormat settings, GMC             : No warppoints\r\nFormat settings, Matrix          : Default (H.263)\r\nCodec ID                         : XVID\r\nCodec ID/Hint                    : XviD\r\nDuration                         : 1h 38mn\r\nBit rate                         : 1 899 Kbps\r\nWidth                            : 720 pixels\r\nHeight                           : 304 pixels\r\nDisplay aspect ratio             : 2.35:1\r\nFrame rate                       : 25.000 fps\r\nColor space                      : YUV\r\nChroma subsampling               : 4:2:0\r\nBit depth                        : 8 bits\r\nScan type                        : Progressive\r\nCompression mode                 : Lossy\r\nBits/(Pixel*Frame)               : 0.347\r\nStream size                      : 1.30 GiB (81%)\r\nWriting library                  : XviD 1.1.2 (UTC 2006-11-01)\r\n\r\nAudio:\r\n\r\nFormat                           : AC-3\r\nFormat/Info                      : Audio Coding 3\r\nMode extension                   : CM (complete main)\r\nCodec ID                         : 2000\r\nDuration                         : 1h 38mn\r\nBit rate mode                    : Constant\r\nBit rate                         : 448 Kbps\r\nChannel(s)                       : 6 channels\r\nChannel positions                : Front: L C R, Side: L R, LFE\r\nSampling rate                    : 48.0 KHz\r\nBit depth                        : 16 bits\r\nCompression mode                 : Lossy\r\nStream size                      : 315 MiB (19%)\r\nAlignment                        : Aligned on interleaves\r\nInterleave, duration             : 32 ms (0.80 video frame)\r\nInterleave, preload duration     : 32 ms
The Son of No One.avi 1.736 GB
Cover/The Son of No One.jpg 55.422 KB
www.Film-Test.nl.JPG 34.175 KB
Gathering some info...

Register and log in Isohunt and see no captcha anymore!

4000 symbols left
Hash 5FEE31C8AC33D25BFABADFC85012F1FF10264297

Related torrents for "The Son of no One"