imdb
rating

7.1
The Words

The Words (2012)

Drama, Thriller

Full description

The Words 2012 DVDRiP XViD-SML

Size 728.742 MB   0 seeders     Added 2012-09-17 06:11:58

Stream torrent
Starting‥ You need BitLord! Get it from BitLord.com
To download or stream you need BitLord. Visit them at BitLord.com
Frame rate                       : 23.067 fps
Original frame rate              : 23.976 fps
Color space                      : YUV
Chroma subsampling               : 4:2:0
Bit depth                        : 8 bits
Scan type                        : Progressive
Compression mode                 : Lossy
Bits/(Pixel*Frame)               : 0.254
Stream size                      : 599 MiB (91%)
Writing library                  : XviD 64

Audio
ID                               : 1
Format                           : MPEG Audio
Format version                   : Version 1
Format profile                   : Layer 3
Mode                             : Joint stereo
Mode extension                   : MS Stereo
Codec ID                         : 55
Codec ID/Hint                    : MP3
Duration                         : 1h 42mn
Bit rate mode                    : Constant
Bit rate                         : 128 Kbps
Channel(s)                       : 2 channels
Sampling rate                    : 44.1 KHz
Compression mode                 : Lossy
Stream size                      : 93.7 MiB (9%)
Alignment                        : Split accross interleaves
Interleave, duration             : 43 ms (1.00 video frame)
Interleave, preload duration     : 500 ms
The Words.2012.DVDRiP.XViD-SML/The Words.2012.DVDRiP.XViD-SML.wmv 728.669 MB
The Words.2012.DVDRiP.XViD-SML/Subtitle.srt 66.326 KB
The Words.2012.DVDRiP.XViD-SML/info.nfo 6.41 KB
Gathering some info...

Register and log in Isohunt and see no captcha anymore!

4000 symbols left
Hash b484a93cd6ca94e0186761cbe6b9a938a852c33f

Related torrents for "The Words 2012 DVDRiP XViD-SML"

Torrent search:

dvdrip 2012