imdb
rating

6.6
The Odd Life of Timothy Green

The Odd Life of Timothy Green (2012)

Comedy, Drama, Fantasy, Family

Full description
quality   fullhd screener dvdrip hd bd x264

The Odd Life of Timothy Green 2012 BDRip XviD-WiDE

Size 708.342 MB   0 seeders     Added 2012-09-18 08:58:13

Stream torrent
Starting‥ You need BitLord! Get it from 1BitLord.com
To download or stream you need BitLord. Visit them at BitLord.com
ID                               : 0
Format                           : MPEG-4 Visual
Format profile                   : Advanced Simple@L5
Format settings, BVOP            : 2
Format settings, QPel            : No
Format settings, GMC             : No warppoints
Format settings, Matrix          : Default (H.263)
Codec ID                         : XVID
Codec ID/Hint                    : XviD
Duration                         : 1h 34mn
Bit rate                         : 2 293 Kbps
Width                            : 720 pixels
Height                           : 304 pixels
Display aspect ratio             : 2.35:1
Frame rate                       : 23.976 fps
Color space                      : YUV
Chroma subsampling               : 4:2:0
Bit depth                        : 8 bits
Scan type                        : Progressive
Compression mode                 : Lossy
Bits/(Pixel*Frame)               : 0.437
Stream size                      : 0.567 GiB (83%)
Writing library                  : XviD 1.2.1 (UTC 2008-12-04)

[color=red]Audio[/color]

ID                               : 1
Format                           : AC-3
Format/Info                      : Audio Coding 3
Mode extension                   : CM (complete main)
Codec ID                         : 2000
Duration                         : 1h 34mn
Bit rate mode                    : Constant
Bit rate                         : 448 Kbps
Channel(s)                       : 6 channels
Channel positions                : Front: L C R, Side: L R, LFE
Sampling rate                    : 48.0 KHz
Bit depth                        : 16 bits
Compression mode                 : Lossy
Stream size                      : 202 MiB (16%)
Alignment                        : Aligned on interleaves
Interleave, duration             : 64 ms (1.53 video frames)
Interleave, preload duration     : 192 ms
The Odd Life of Timothy Green 2012 BDRip XviD-WiDE/The Odd Life of Timothy Green [2012].wmv 708.269 MB
The Odd Life of Timothy Green 2012 BDRip XviD-WiDE/Subtitle.srt 66.326 KB
The Odd Life of Timothy Green 2012 BDRip XviD-WiDE/info.nfo 6.41 KB
Gathering some info...

Register and log in Isohunt and see no captcha anymore!

4000 symbols left
Hash 2cb1052d66f9e278c2fdcad78c47aa66cef2c5aa

Related torrents for "The Odd Life of Timothy Green 2012 BDRip XviD-WiDE"

Torrent search:

2012 bd