imdb
rating

7.6
Field of Dreams

Field of Dreams (1989)

Drama, Fantasy, Romance, Family

Full description
quality   hdtv dvdrip bd x264 fullhd h264 hd

Field of Dreams

Size 1.997 GB   0 seeders     Added 2012-09-19 02:49:37

Stream torrent
Starting‥ You need BitLord! Get it from BitLord.com
To download or stream you need BitLord. Visit them at BitLord.com
[img] image[/img]

With: Kevin Costner, James Earl Jones and Ray Liotta

De boer Ray Kinsella uit Iowa hoort op een dag, wanneer hij midden in zijn korenvelden staat, een stem die hem vertelt dat hij op zijn land een honkbalveld moet aanleggen. Hij volgt de stem op, en wanneer de klus geklaard is verschijnen de geesten van verschillende legendarische honkbalspelers op het veld. Nadat hij verdere aanwijzingen van de stem krijgt gaat Ray op zoek naar een schrijver die hem kan helpen met het verklaren van de boodschappen en het doel van het veld.

An Iowa corn farmer, hearing voices, interprets them as a command to build a baseball diamond in his fields; he does, and the Chicago Black Sox come. 

http://www.imdb.com/title/tt0097351

[COLOR=#DD0000]------------------------ Dutch Friends ------------------------
---------------------------------------------------------------
- Bezoek ook eens mijn vrienden op:  http://www.Film-Test.nl --
----- voor mijn Nederlandse Sync. ondertitels ---- en meer ----
------- http://www.Film-Test.nl ---- voor Films en meer -------
---------------------------------------------------------------[/COLOR]

General:

Complete name                    : Field of Dreams\Field of Dreams.avi
Format                           : AVI
Format/Info                      : Audio Video Interleave
File size                        : 1.86 GiB
Duration                         : 1h 45mn
Overall bit rate                 : 2 520 Kbps

Video:

Format                           : MPEG-4 Visual
Format profile                   : Simple@L3
Format settings, BVOP            : No
Format settings, QPel            : No
Format settings, GMC             : No warppoints
Format settings, Matrix          : Default (H.263)
Codec ID                         : XVID
Codec ID/Hint                    : XviD
Duration                         : 1h 45mn
Bit rate                         : 2 061 Kbps
Width                            : 704 pixels
Height                           : 396 pixels
Display aspect ratio             : 16:9
Frame rate                       : 23.976 fps
Color space                      : YUV
Chroma subsampling               : 4:2:0
Bit depth                        : 8 bits
Scan type                        : Progressive
Compression mode                 : Lossy
Bits/(Pixel*Frame)               : 0.308
Stream size                      : 1.52 GiB (82%)
Writing library                  : XviD 1.1.2 (UTC 2006-11-01)

Audio:

Format                           : AC-3
Format/Info                      : Audio Coding 3
Mode extension                   : CM (complete main)
Codec ID                         : 2000
Duration                         : 1h 45mn
Bit rate mode                    : Constant
Bit rate                         : 448 Kbps
Channel(s)                       : 6 channels
Channel positions                : Front: L C R, Side: L R, LFE
Sampling rate                    : 48.0 KHz
Bit depth                        : 16 bits
Compression mode                 : Lossy
Stream size                      : 338 MiB (18%)
Alignment                        : Aligned on interleaves
Interleave, duration             : 32 ms (0.77 video frame)
Interleave, preload duration     : 384 ms
Field of Dreams.avi 1.997 GB
Cover/Field of Dreams.jpg 120.794 KB
www.Film-Test.nl.JPG 34.175 KB
Gathering some info...

Register and log in Isohunt and see no captcha anymore!

4000 symbols left
Hash FC9C2D0D40EC815A2E5B4ACB5917DD8B0864B432

Related torrents for "Field of Dreams"