imdb
rating

5.3
The Back-Up Plan

The Back-Up Plan (2010)

Comedy, Romance

Full description
quality   screener h264 dvdrip bd x264 hd

The Back-Up Plan

Size 1.649 GB   0 seeders     Added 2012-09-19 02:54:59

Stream torrent
Starting‥ You need BitLord! Get it from 1BitLord.com
To download or stream you need BitLord. Visit them at BitLord.com
[img] image[/img]\r\n\r\nWith: Jennifer Lopez, Alex O'Loughlin and Eric Christian Olsen\r\n\r\nZoe (Jennifer Lopez) wil graag moeder worden en is van mening dat het veel te lang duurt om op een juiste man als vader te wachten. Ze besluit zich kunstmatig te laten bevruchten. Juist op de grote dag ontmoet ze ene Stan (Alex O'Loughlin), een man die wel eens de ware zou kunnen zijn. Om hem niet af te schrikken besluit ze haar zwangerschap geheim te houden.\r\n\r\nA romantic comedy centered on a woman who conceives twins through artificial insemination, only to meet the man of her dreams on the very same day. \r\n\r\nhttp://www.imdb.com/title/tt1212436\r\n\r\n[COLOR=#DD0000]------------------------ Dutch Friends ------------------------\r\n---------------------------------------------------------------\r\n- Bezoek ook eens mijn vrienden op:  http://www.Film-Test.nl --\r\n----- voor mijn Nederlandse Sync. ondertitels ---- en meer ----\r\n------- http://www.Film-Test.nl ---- voor Films en meer -------\r\n---------------------------------------------------------------[/COLOR]\r\n\r\nGeneral:\r\n\r\nComplete name                    : The Back-Up Plan\\The Back-Up Plan.avi\r\nFormat                           : AVI\r\nFormat/Info                      : Audio Video Interleave\r\nFile size                        : 1.54 GiB\r\nDuration                         : 1h 39mn\r\nOverall bit rate                 : 2 200 Kbps\r\n\r\nVideo:\r\n\r\nFormat                           : MPEG-4 Visual\r\nFormat profile                   : Simple@L3\r\nFormat settings, BVOP            : No\r\nFormat settings, QPel            : No\r\nFormat settings, GMC             : No warppoints\r\nFormat settings, Matrix          : Default (H.263)\r\nCodec ID                         : XVID\r\nCodec ID/Hint                    : XviD\r\nDuration                         : 1h 39mn\r\nBit rate                         : 1 741 Kbps\r\nWidth                            : 720 pixels\r\nHeight                           : 304 pixels\r\nDisplay aspect ratio             : 2.35:1\r\nFrame rate                       : 25.000 fps\r\nColor space                      : YUV\r\nChroma subsampling               : 4:2:0\r\nBit depth                        : 8 bits\r\nScan type                        : Progressive\r\nCompression mode                 : Lossy\r\nBits/(Pixel*Frame)               : 0.318\r\nStream size                      : 1.22 GiB (79%)\r\nWriting library                  : XviD 1.1.2 (UTC 2006-11-01)\r\n\r\nAudio:\r\n\r\nFormat                           : AC-3\r\nFormat/Info                      : Audio Coding 3\r\nMode extension                   : CM (complete main)\r\nCodec ID                         : 2000\r\nDuration                         : 1h 39mn\r\nBit rate mode                    : Constant\r\nBit rate                         : 448 Kbps\r\nChannel(s)                       : 6 channels\r\nChannel positions                : Front: L C R, Side: L R, LFE\r\nSampling rate                    : 48.0 KHz\r\nBit depth                        : 16 bits\r\nCompression mode                 : Lossy\r\nStream size                      : 320 MiB (20%)\r\nAlignment                        : Aligned on interleaves\r\nInterleave, duration             : 32 ms (0.80 video frame)\r\nInterleave, preload duration     : 416 ms
The Back-Up Plan.avi 1.649 GB
Cover/The_ Back-Up Plan.jpg 152.11 KB
www.Film-Test.nl.JPG 34.175 KB
Gathering some info...

Register and log in Isohunt and see no captcha anymore!

4000 symbols left
Hash 322705C4BD64890A85807FE52AE3CD3A2801B435

Related torrents for "The Back-Up Plan"