Finding Nemo 2012 DVDRip XviD-VoMiT

Size 719.562 MB   0 seeders     Added 2012-09-21 02:55:31

Stream torrent
Starting‥ You need BitLord! Get it from BitLord.com
To download or stream you need BitLord. Visit them at BitLord.com
Video\r\nID                               : 0\r\nFormat                           : MPEG-4 Visual\r\nFormat profile                   : Advanced Simple@L5\r\nFormat settings, BVOP            : Yes\r\nFormat settings, QPel            : No\r\nFormat settings, GMC             : No warppoints\r\nFormat settings, Matrix          : Default (H.263)\r\nMuxing mode                      : Packed bitstream\r\nCodec ID                         : XVID\r\nCodec ID/Hint                    : XviD\r\nDuration                         : 1h 29mn\r\nBit rate                         : 955 Kbps\r\nWidth                            : 640 pixels\r\nHeight                           : 272 pixels\r\nDisplay aspect ratio             : 2.35:1\r\nFrame rate                       : 25.000 fps\r\nColor space                      : YUV\r\nChroma subsampling               : 4:2:0\r\nBit depth                        : 8 bits\r\nScan type                        : Progressive\r\nBits/(Pixel*Frame)               : 0.219\r\nStream size                      : 613 MiB (88%)\r\nWriting library                  : XviD 62\r\n\r\nAudio\r\nID                               : 1\r\nFormat                           : MPEG Audio\r\nFormat version                   : Version 1\r\nFormat profile                   : Layer 3\r\nMode                             : Joint stereo\r\nMode extension                   : MS Stereo\r\nCodec ID                         : 55\r\nCodec ID/Hint                    : MP3\r\nDuration                         : 1h 29mn\r\nBit rate mode                    : Variable\r\nBit rate                         : 121 Kbps\r\nNominal bit rate                 : 128 Kbps\r\nChannel(s)                       : 2 channels\r\nSampling rate                    : 48.0 KHz\r\nStream size                      : 77.8 MiB (11%)\r\nAlignment                        : Aligned on interleaves\r\nInterleave, duration             : 24 ms (0.60 video frame)\r\nInterleave, preload duration     : 507 ms\r\nWriting library                  : LAME3.98r\r\nEncoding settings                : -m j -V 4 -q 2 -lowpass 17 --abr 128
Finding Nemo.wmv 719.489 MB
Subtitle.srt 66.326 KB
info.nfo 6.41 KB
Gathering some info...

Register and log in Isohunt and see no captcha anymore!

4000 symbols left
Hash 0A57A80EC080B0E023294E9D533C981B6FBD14CA