imdb
rating

7.6
Blow

Blow (2001)

Drama

Full description
quality   dvdrip x264 hd bd h264 fullhd

Ce que le jour doit la nuit VOSTFR DVDRiP XViD - BLOW

Size 841.974 MB   2 seeders     Added 2012-09-23 02:47:09

Stream torrent
Starting‥ You need BitLord! Get it from BitLord.com
3.9
To download or stream you need BitLord. Visit them at BitLord.com
Ce que le jour doit a la nuit VOSTFR DVDRiP XViD - BLOW\r\n\r\n[IMG]image[/IMG]\r\n\r\nIMDB: \r\n\r\nhttp://www.imdb.com/title/tt1934205/\r\n\r\n\r\nSTATS:\r\n\r\nVideo\r\nID                               : 0\r\nFormat                           : MPEG-4 Visual\r\nFormat profile                   : Advanced Simple@L5\r\nFormat settings, BVOP            : 2\r\nFormat settings, QPel            : No\r\nFormat settings, GMC             : No warppoints\r\nFormat settings, Matrix          : Default (MPEG)\r\nMuxing mode                      : Packed bitstream\r\nCodec ID                         : XVID\r\nCodec ID/Hint                    : XviD\r\nDuration                         : 2h 39mn\r\nBit rate                         : 986 Kbps\r\nWidth                            : 720 pixels\r\nHeight                           : 320 pixels\r\nDisplay aspect ratio             : 2.25:1\r\nFrame rate                       : 29.970 fps\r\nColor space                      : YUV\r\nChroma subsampling               : 4:2:0\r\nBit depth                        : 8 bits\r\nScan type                        : Progressive\r\nCompression mode                 : Lossy\r\nBits/(Pixel*Frame)               : 0.243\r\nStream size                      : 745 MiB (92%)\r\nWriting library                  : XviD 64\r\n\r\nAudio\r\n\r\nFormat                           : MPEG Audio\r\nFormat version                   : Version 1\r\nFormat profile                   : Layer 3\r\nMode                             : Joint stereo\r\nMode extension                   : MS Stereo\r\nCodec ID                         : 55\r\nCodec ID/Hint                    : MP3\r\nDuration                         : 2h 39mn\r\nBit rate mode                    : Constant\r\nBit rate                         : 128 Kbps\r\nChannel(s)                       : 2 channels\r\nSampling rate                    : 48.0 KHz\r\nCompression mode                 : Lossy\r\nStream size                      : 56 MiB (7%)\r\nAlignment                        : Split accross interleaves\r\nInterleave, duration             : 33 ms (1.00 video frame)\r\nInterleave, preload duration     : 500 ms\r\n\r\n\r\nSCREENS:\r\n\r\n[IMG]image[/IMG]\r\n[IMG]image[/IMG]\r\n[IMG]image[/IMG]
Affiche.jpg 154.585 KB
Ce que le jour doit à la nuit VOSTFR DVDRiP XViD - BLOW.nfo 2.204 KB
Ce que le jour doit à la nuit VOSTFR DVDRiP XViD - BLOW.rar 839.91 MB
Gathering some info...

Register and log in Isohunt and see no captcha anymore!

4000 symbols left
Hash FD2B22892B4BF9648D66E318A5C750C4DF017D77

Related torrents for "Ce que le jour doit la nuit VOSTFR DVDRiP XViD - BLOW"

Torrent search:

dvdrip