Kyss Mig

Size 1.133 GB   12 seeders     Added 2012-09-27 03:21:43

Stream torrent
Starting‥ You need BitLord! Get it from BitLord.com
10
To download or stream you need BitLord. Visit them at BitLord.com
[img] image[/img]\r\n\r\nWith: Ruth Vega Fernandez, Liv Mjönes and Lena Endre\r\n\r\nMet engelse subs (srt),\r\nMia (Ruth Vega Fernandez) en Frida (Liv Mjönes) ontmoeten elkaar voor het eerst bij het verlovingsfeest van hun ouders. Mia's vader staat op het punt te trouwen met de moeder van Frida, waardoor zij stiefzussen worden. Al snel wordt echter duidelijk dat ze elkaar niet als zussen zien. Mia is druk bezig met de voorbereidingen van haar eigen huwelijk, als de vonk tussen haar en Frida overslaat en alles in de war wordt geschopt.\r\n\r\nWith English subs (srt),\r\nMIA (Ruth Vega Fernandez) and FRIDA (Liv Mjönes), both in their thirties, meet each other for the first time at their parents' engagement party...\r\n\r\nhttp://www.imdb.com/title/tt1859522\r\n\r\n------------------------ Dutch Friends ------------------------\r\n---------------------------------------------------------------\r\n- Bezoek ook eens mijn vrienden op:  http://www.Film-Test.nl --\r\n----- voor mijn Nederlandse Sync. ondertitels ---- en meer ----\r\n------- http://www.Film-Test.nl ---- voor Films en meer -------\r\n---------------------------------------------------------------\r\n\r\n[COLOR=#DD0000][/COLOR]General:\r\n\r\nComplete name                    : Kyss Mig\\Kyss Mig.avi\r\nFormat                           : AVI\r\nFormat/Info                      : Audio Video Interleave\r\nFile size                        : 1.06 GiB\r\nDuration                         : 1h 43mn\r\nOverall bit rate                 : 1 462 Kbps\r\n\r\nVideo:\r\n\r\nFormat                           : MPEG-4 Visual\r\nFormat profile                   : Simple@L3\r\nFormat settings, BVOP            : No\r\nFormat settings, QPel            : No\r\nFormat settings, GMC             : No warppoints\r\nFormat settings, Matrix          : Default (H.263)\r\nCodec ID                         : XVID\r\nCodec ID/Hint                    : XviD\r\nDuration                         : 1h 43mn\r\nBit rate                         : 1 003 Kbps\r\nWidth                            : 720 pixels\r\nHeight                           : 304 pixels\r\nDisplay aspect ratio             : 2.35:1\r\nFrame rate                       : 25.000 fps\r\nColor space                      : YUV\r\nChroma subsampling               : 4:2:0\r\nBit depth                        : 8 bits\r\nScan type                        : Progressive\r\nCompression mode                 : Lossy\r\nBits/(Pixel*Frame)               : 0.183\r\nStream size                      : 741 MiB (69%)\r\nWriting library                  : XviD 1.1.2 (UTC 2006-11-01)\r\n\r\nAudio:\r\n\r\nFormat                           : AC-3\r\nFormat/Info                      : Audio Coding 3\r\nMode extension                   : CM (complete main)\r\nCodec ID                         : 2000\r\nDuration                         : 1h 43mn\r\nBit rate mode                    : Constant\r\nBit rate                         : 448 Kbps\r\nChannel(s)                       : 6 channels\r\nChannel positions                : Front: L C R, Side: L R, LFE\r\nSampling rate                    : 48.0 KHz\r\nBit depth                        : 16 bits\r\nCompression mode                 : Lossy\r\nStream size                      : 331 MiB (31%)\r\nAlignment                        : Aligned on interleaves\r\nInterleave, duration             : 32 ms (0.80 video frame)\r\nInterleave, preload duration     : 128 ms
Kyss Mig.avi 1.133 GB
Cover/www.Film-Test.nl.JPG 34.175 KB
www.Film-Test.nl.JPG 34.175 KB
Gathering some info...

Register and log in Isohunt and see no captcha anymore!

4000 symbols left
Hash 72AB941913DF5ABEF56357624A7E668FF5E83374

Related torrents for "Kyss Mig"