imdb
rating

7.0
Big Top Scooby-Doo!

Big Top Scooby-Doo! (2012)

Animation, Comedy, Family

Full description

Big Top Scooby Doo 2012 VODRiP AC3 5 1 XviD AXED

Size 1.49 GB   0 seeders     Added 2012-09-27 03:23:25

Stream torrent
Starting‥ You need BitLord! Get it from 1BitLord.com
To download or stream you need BitLord. Visit them at BitLord.com
Looking for fast download speeds come join http://dream-torrents.com for all the latest releases, with friendly staff online radio and games and much much more.\r\n-\r\n-\r\n.\r\n\r\n\r\n\r\nFormat: AVI\r\nFormat/Info: Audio Video Interleave\r\nFile size: 1.37 GiB\r\nDuration: 1h 20mn\r\nOverall bit rate: 2 439 Kbps\r\nVideo\r\nID: 0\r\nFormat: MPEG-4 Visual\r\nFormat profile: Advanced Simple@L5\r\nFormat settings, BVOP: 2\r\nFormat settings, QPel: No\r\nFormat settings, GMC: No warppoints\r\nFormat settings, Matrix: Default (H.263)\r\nMuxing mode: Packed bitstream\r\nCodec ID: XVID\r\nCodec ID/Hint: XviD\r\nDuration: 1h 20mn\r\nBit rate: 2 047 Kbps\r\nWidth: 640 pixels\r\nHeight: 352 pixels\r\nDisplay aspect ratio: 16:9\r\nFrame rate: 23.976 fps\r\nColor space: YUV\r\nChroma subsampling: 4:2:0\r\nBit depth: 8 bits\r\nScan type: Progressive\r\nCompression mode: Lossy\r\nBits/(Pixel*Frame): 0.379\r\nStream size: 1.15 GiB (84%)\r\nWriting library: XviD 1.1.2 (UTC 2006-11-01)\r\nAudio\r\nID: 1\r\nFormat: AC-3\r\nFormat/Info: Audio Coding 3\r\nMode extension: CM (complete main)\r\nFormat settings, Endianness: Big\r\nCodec ID: 2000\r\nDuration: 1h 20mn\r\nBit rate mode: Constant\r\nBit rate: 384 Kbps\r\nChannel(s): 6 channels\r\nChannel positions: Front: L C R, Side: L R, LFE\r\nSampling rate: 48.0 KHz\r\nBit depth: 16 bits\r\nCompression mode: Lossy\r\nStream size: 221 MiB (16%)\r\nAlignment: Aligned on interleaves\r\nInterleave, duration: 64 ms (1.53 video frames)\r\nInterleave, preload duration: 192 ms\r\nTitle: bigtopscoobydoo\r\n\r\n\r\nWhen Scooby and the gang hear of a werewolf plaguing a traveling circus, they go undercover as circus performers to get to the bottom of the mystery.
Big.Top.Scooby.Doo.2012.VODRiP.AC3-5.1.XviD-AXED-SAMPLE.avi 19.523 MB
Big.Top.Scooby.Doo.2012.VODRiP.AC3-5.1.XviD-AXED.avi 1.471 GB
Big.Top.Scooby.Doo.2012.VODRiP.AC3-5.1.XviD-AXED.nfo 4.513 KB
Gathering some info...

Register and log in Isohunt and see no captcha anymore!

4000 symbols left
Hash 4B1E720436041E7C4845B84A23D09FBAB17DFCB4

Related torrents for "Big Top Scooby Doo 2012 VODRiP AC3 5 1 XviD AXED"

Torrent search:

2012