imdb
rating

6.7
Puss in Boots

Puss in Boots (2011)

Animation

Full description
quality   hd telesync dvdrip dvd cam h264

Puss in Boots 2011 720P BRRIP XViD AC3 - HOPE

Size 2.105 GB   32 seeders     Added 2012-09-27 03:24:25

Stream torrent
Starting‥ You need BitLord! Get it from BitLord.com
To download or stream you need BitLord. Visit them at BitLord.com
Puss in Boots 2011 720P BRRIP XViD AC3 - HOPE\r\n\r\nCover\r\n\r\nhttp://images.net63.net/short_url/?LXESI\r\n\r\nScreene:\r\n\r\nhttp://images.net63.net/short_url/?OMZLA\r\nhttp://images.net63.net/short_url/?ESCJX\r\nhttp://images.net63.net/short_url/?MCXSH\r\nhttp://images.net63.net/short_url/?ZWBMY\r\nhttp://images.net63.net/short_url/?YXIBQ\r\nhttp://images.net63.net/short_url/?NALFH\r\nhttp://images.net63.net/short_url/?KJGGQ\r\nhttp://images.net63.net/short_url/?YADLA\r\n\r\nPlot: \r\nA story about the events leading up to the sword fighting cat's meeting with Shrek and his friends. \r\n\r\nIMDB: \r\nwww.imdb.com/title/tt0448694/\r\n\r\nInformation:\r\nFormat                           : AVI\r\nFormat/Info                      : Audio Video Interleave\r\nFile size                        : 1.94 GiB\r\nDuration                         : 1h 30mn\r\nOverall bit rate                 : 3 079 Kbps\r\n\r\nVideo\r\nID                               : 0\r\nFormat                           : MPEG-4 Visual\r\nFormat profile                   : Advanced Simple@L5\r\nFormat settings, BVOP            : 2\r\nFormat settings, QPel            : No\r\nFormat settings, GMC             : No warppoints\r\nFormat settings, Matrix          : Default (H.263)\r\nMuxing mode                      : Packed bitstream\r\nCodec ID                         : XVID\r\nCodec ID/Hint                    : XviD\r\nDuration                         : 1h 30mn\r\nBit rate                         : 2 623 Kbps\r\nWidth                            : 1 280 pixels\r\nHeight                           : 544 pixels\r\nDisplay aspect ratio             : 2.35:1\r\nFrame rate                       : 23.976 fps\r\nColor space                      : YUV\r\nChroma subsampling               : 4:2:0\r\nBit depth                        : 8 bits\r\nScan type                        : Progressive\r\nCompression mode                 : Lossy\r\nBits/(Pixel*Frame)               : 0.157\r\nStream size                      : 1.65 GiB (85%)\r\nWriting library                  : XviD 64\r\n\r\nAudio\r\nID                               : 1\r\nFormat                           : AC-3\r\nFormat/Info                      : Audio Coding 3\r\nMode extension                   : CM (complete main)\r\nCodec ID                         : 2000\r\nDuration                         : 1h 30mn\r\nBit rate mode                    : Constant\r\nBit rate                         : 448 Kbps\r\nChannel(s)                       : 6 channels\r\nChannel positions                : Front: L C R, Side: L R, LFE\r\nSampling rate                    : 48.0 KHz\r\nBit depth                        : 16 bits\r\nCompression mode                 : Lossy\r\nStream size                      : 289 MiB (15%)\r\nAlignment                        : Aligned on interleaves\r\nInterleave, duration             : 64 ms (1.53 video frames)\r\nInterleave, preload duration     : 192 ms\r\n\r\n\r\nNotes: \r\nJust another release of many lol \r\n\r\nSource > 720p.BluRay.x264.DTS-HDC... Thanks \r\n\r\nEnjoy!\r\n\r\nRespects to 26K, DTRG, JCRG, GooN, ViSiON, SANTi, INSPiRAL, REFiLL, SiC... \r\nAnd many others in the P2P and Scene world
Torrent downloaded from Demonoid.me.txt 46 B
Puss in Boots 2011 720P BRRIP XViD AC3 - HOPE_SAMPLE.avi 21.033 MB
Puss in Boots 2011 720P BRRIP XViD AC3 - HOPE.avi 2.084 GB
Gathering some info...

Register and log in Isohunt and see no captcha anymore!

4000 symbols left
Hash 6824C3D426AF63F75824EEEAD90585462E5A9E96

Related torrents for "Puss in Boots 2011 720P BRRIP XViD AC3 - HOPE"

Torrent search:

hd bd 2011