imdb
rating

6.2
Shrek's Thrilling Tales

Shrek's Thrilling Tales (2012)

Animation, Comedy, Family

Full description
quality   dvdrip x264 h264

Shreks Thrilling Tales 2012 DVDRIP XVID AC3 BHRG

Size 739.377 MB   0 seeders     Added 2012-09-27 03:28:18

Stream torrent
Starting‥ You need BitLord! Get it from BitLord.com
To download or stream you need BitLord. Visit them at BitLord.com
[URL=http://imgchili.com/show/15229/15229465_shrek's.jpg][IMG]image[/IMG][/URL]\r\n\r\n\r\nShreks Thrilling Tales 2012 DVDRIP XVID AC3 BHRG\r\n\r\n\r\n\r\n\r\n\r\n\r\nGeneral\r\nComplete name                            : C:\\Users\\clau\\Downloads\\Shreks Thrilling Tales 2012 DVDRIP XVID AC3 BHRG\\Shreks Thrilling Tales 2012 DVDRIP XVID AC3 BHRG.avi\r\nFormat                                   : AVI\r\nFormat/Info                              : Audio Video Interleave\r\nFile size                                : 687 MiB\r\nDuration                                 : 31mn 50s\r\nOverall bit rate                         : 3 019 Kbps\r\nWriting library                          : VirtualDub build 30091/release\r\n\r\nVideo\r\nID                                       : 0\r\nFormat                                   : MPEG-4 Visual\r\nFormat profile                           : Advanced Simple@L5\r\nFormat settings, BVOP                    : 1\r\nFormat settings, QPel                    : No\r\nFormat settings, GMC                     : No warppoints\r\nFormat settings, Matrix                  : Default (H.263)\r\nMuxing mode                              : Packed bitstream\r\nCodec ID                                 : XVID\r\nCodec ID/Hint                            : XviD\r\nDuration                                 : 31mn 50s\r\nBit rate                                 : 2 562 Kbps\r\nWidth                                    : 720 pixels\r\nHeight                                   : 400 pixels\r\nDisplay aspect ratio                     : 16:9\r\nFrame rate                               : 23.976 fps\r\nColor space                              : YUV\r\nChroma subsampling                       : 4:2:0\r\nBit depth                                : 8 bits\r\nScan type                                : Progressive\r\nCompression mode                         : Lossy\r\nBits/(Pixel*Frame)                       : 0.371\r\nStream size                              : 583 MiB (85%)\r\nWriting library                          : XviD 1.2.1 (UTC 2008-12-04)\r\n\r\nAudio\r\nID                                       : 1\r\nFormat                                   : AC-3\r\nFormat/Info                              : Audio Coding 3\r\nMode extension                           : CM (complete main)\r\nFormat settings, Endianness              : Big\r\nCodec ID                                 : 2000\r\nDuration                                 : 31mn 48s\r\nBit rate mode                            : Constant\r\nBit rate                                 : 448 Kbps\r\nChannel(s)                               : 6 channels\r\nChannel positions                        : Front: L C R, Side: L R, LFE\r\nSampling rate                            : 48.0 KHz\r\nBit depth                                : 16 bits\r\nCompression mode                         : Lossy\r\nDelay relative to video                  : 6ms\r\nStream size                              : 102 MiB (15%)\r\nAlignment                                : Split accross interleaves\r\nInterleave, duration                     : 42 ms (1.00 video frame)\r\nInterleave, preload duration             : 500 ms\r\n\r\n\r\n\r\n\r\nSCREENERS HERE,DOWNLOAD AND ENJOY THE MOVIE,THANKS :\r\n\r\n\r\n\r\n\r\n[URL=http://imgchili.com/show/15229/15229507_shreks_thrilling_tal.jpg][IMG]image[/IMG][/URL]
Shreks Thrilling Tales 2012 DVDRIP XVID AC3 BHRG.rar 739.377 MB
Gathering some info...

Register and log in Isohunt and see no captcha anymore!

4000 symbols left
Hash 3F3D2B0F44AAB81BE9FCC3708E7EA75321C82322

Related torrents for "Shreks Thrilling Tales 2012 DVDRIP XVID AC3 BHRG"

Torrent search:

dvdrip 2012