imdb
rating

4.8
Spooky Buddies

Spooky Buddies (2011)

Comedy, Family

Full description
quality   dvdrip x264 dvdr hd bd

Spooky Buddies 2011 DVDrip English Dutch Klam

Size 1.894 GB   0 seeders     Added 2012-09-27 03:28:35

Stream torrent
Starting‥ You need BitLord! Get it from 1BitLord.com
To download or stream you need BitLord. Visit them at BitLord.com
[img] image[/img]\r\n\r\nWith: Sierra McCormick, Harland Williams en Elisa Donovan\r\n\r\nNederlands of Engels gesproken,\r\nDe pratende puppy's zijn terug en komen terecht in een mysterieus landhuis waar iets spookachtigs aan de hand is. Samen met een aantal nieuwe vrienden, waaronder een aardig spook, moeten ze alles op alles zetten om \"Warwick the Warlock\" te stoppen en de aarde te redden van zijn kwaadaardige plannetjes.\r\n\r\nDutch or English spoken,\r\nThe buddies are on their new adventure on a scary halloween night! You can buy Spooky Buddies on Blue ray or Disney DVD on September 20th 2011! Get ready for it!\r\n\r\nhttp://www.imdb.com/title/tt1792131\r\n\r\n[COLOR=#3300FF]------------------------ Dutch Friends ------------------------\r\n---------------------------------------------------------------\r\n- Bezoek ook eens mijn vrienden op:  http://www.Film-Test.nl --\r\n----- voor mijn Nederlandse Sync. ondertitels ---- en meer ----\r\n------- http://www.Film-Test.nl ---- voor Films en meer -------\r\n---------------------------------------------------------------[/COLOR]\r\n\r\nGeneral:\r\n\r\nComplete name                    : Spooky Buddies\\Spooky Buddies.avi\r\nFormat                           : AVI\r\nFormat/Info                      : Audio Video Interleave\r\nFile size                        : 1.76 GiB\r\nDuration                         : 1h 24mn\r\nOverall bit rate                 : 2 977 Kbps\r\n\r\nVideo:\r\n\r\nFormat                           : MPEG-4 Visual\r\nFormat profile                   : Simple@L3\r\nFormat settings, BVOP            : No\r\nFormat settings, QPel            : No\r\nFormat settings, GMC             : No warppoints\r\nFormat settings, Matrix          : Default (H.263)\r\nCodec ID                         : XVID\r\nCodec ID/Hint                    : XviD\r\nDuration                         : 1h 24mn\r\nBit rate                         : 2 192 Kbps\r\nWidth                            : 704 pixels\r\nHeight                           : 400 pixels\r\nDisplay aspect ratio             : 16:9\r\nFrame rate                       : 25.000 fps\r\nColor space                      : YUV\r\nChroma subsampling               : 4:2:0\r\nBit depth                        : 8 bits\r\nScan type                        : Progressive\r\nCompression mode                 : Lossy\r\nBits/(Pixel*Frame)               : 0.311\r\nStream size                      : 1.30 GiB (74%)\r\nWriting library                  : XviD 1.1.2 (UTC 2006-11-01)\r\n\r\nAudio's:\r\n\r\nFormat                           : AC-3\r\nFormat/Info                      : Audio Coding 3\r\nMode extension                   : CM (complete main)\r\nCodec ID                         : 2000\r\nDuration                         : 1h 24mn\r\nBit rate mode                    : Constant\r\nBit rate                         : 384 Kbps\r\nChannel(s)                       : 6 channels\r\nChannel positions                : Front: L C R, Side: L R, LFE\r\nSampling rate                    : 48.0 KHz\r\nBit depth                        : 16 bits\r\nCompression mode                 : Lossy\r\nStream size                      : 233 MiB (13%)\r\nAlignment                        : Aligned on interleaves\r\nInterleave, duration             : 32 ms (0.80 video frame)\r\nInterleave, preload duration     : 288 ms\r\nAudio Language                   : Dutch, English
Cover/Spooky Buddies.jpg 716.854 KB
Cover/www.Film-Test.nl.JPG 34.175 KB
Spooky Buddies.avi 1.893 GB
Gathering some info...

Register and log in Isohunt and see no captcha anymore!

4000 symbols left
Hash A07B437AB380C980335DE24C16044E817B4715E1

Related torrents for "Spooky Buddies 2011 DVDrip English Dutch Klam"

Torrent search:

dvdrip english german 2011