Live In

Live In (1989)

Comedy

Full description

Whitesnake - Live In The Still Of The Night (2006)[DVD9]

Size 6.709 GB   0 seeders     Added 2012-09-27 03:35:10

Stream torrent
Starting‥ You need BitLord! Get it from 1BitLord.com
10
To download or stream you need BitLord. Visit them at BitLord.com
[size=14][b][color=#0000FF]Whitesnake - Live In The Still Of The Night (2006)[/color][/b][/size]\r\n\r\n[img]image[/img]\r\n\r\nAnno: 2006\r\nGenere: hard rock\r\nFrequenza Fotografica FSP: 25.000\r\nDurata: 103 min\r\n\r\n\r\n[color=red]Dimensione:[/color][color=blue] 7 Gb[/color]\r\n[color=red]Formato Video:[/color][color=blue] DVD9[/color]\r\n[color=red]Lingua:[/color][color=blue] Engish[/color]\r\n\r\n\r\n[b]Few groups have had as powerful an impact on the international rock scene as Whitesnake. Inspired by the blues, singer David Coverdale's rock vision has bevcome a standard that many acts have tried to live up to yet pale in comparison. This was Whitesnake's first official DVD live set, recorded in the fall of 2004 and includes all of the band's top hits.\r\n\r\n\r\n[img]image[/img]\r\n\r\n\r\nTracks:\r\n01. Burn\r\n02. Bad Boys\r\n03. Love Ain't No Stranger\r\n04. Ready An' Willing\r\n05. Is This Love\r\n06. Give Me All Your Love\r\n07. Judgement Day\r\n08. Blues for Mylene\r\n09. Snake Dance\r\n10. Cryin' in the Rain (Pt. 1)\r\n11. Drum Solo\r\n12. Cryin' in the Rain (Pt. 2)\r\n13. Ain't No Love in the Heart of the City\r\n14. Don't Break My Heart Again\r\n15. Fool, for Your Lovin'\r\n16. Here I Go Again\r\n17. Take Me With You\r\n18. Still of the Night\r\n[/b]\r\n\r\n \r\n[code]General\r\nComplete name : F:\\download\\w_isn06dh\\serpebianco.ghhtueijfhf..lk\\VIDEO_TS\\VTS_02_2.VOB\r\nFormat : MPEG-PS\r\nFile size : 1 024 MiB\r\nDuration : 18mn 20s\r\nOverall bit rate mode : Variable\r\nOverall bit rate : 7 807 Kbps\r\n\r\nVideo\r\nID : 224 (0xE0)\r\nFormat : MPEG Video\r\nFormat version : Version 2\r\nFormat profile : Main@Main\r\nFormat settings, BVOP : Yes\r\nFormat settings, Matrix : Custom\r\nDuration : 18mn 19s\r\nBit rate mode : Variable\r\nBit rate : 5 873 Kbps\r\nMaximum bit rate : 9 802 Kbps\r\nWidth : 720 pixels\r\nHeight : 576 pixels\r\nDisplay aspect ratio : 16:9\r\nFrame rate : 25.000 fps\r\nStandard : PAL\r\nColor space : YUV\r\nChroma subsampling : 4:2:0\r\nBit depth : 8 bits\r\nScan type : Interlaced\r\nScan order : Top Field First\r\nCompression mode : Lossy\r\nBits/(Pixel*Frame) : 0.566\r\nStream size : 770 MiB (75%)\r\n\r\nAudio #1\r\nID : 189 (0xBD)-128 (0x80)\r\nFormat : AC-3\r\nFormat/Info : Audio Coding 3\r\nMode extension : CM (complete main)\r\nMuxing mode : DVD-Video\r\nDuration : 18mn 20s\r\nBit rate mode : Constant\r\nBit rate : 384 Kbps\r\nChannel(s) : 2 channels\r\nChannel positions : Front: L R\r\nSampling rate : 48.0 KHz\r\nBit depth : 16 bits\r\nCompression mode : Lossy\r\nDelay relative to video : -272ms\r\nStream size : 50.4 MiB (5%)\r\n\r\nAudio #2\r\nID : 189 (0xBD)-129 (0x81)\r\nFormat : AC-3\r\nFormat/Info : Audio Coding 3\r\nMode extension : CM (complete main)\r\nMuxing mode : DVD-Video\r\nDuration : 18mn 20s\r\nBit rate mode : Constant\r\nBit rate : 192 Kbps\r\nChannel(s) : 2 channels\r\nChannel positions : Front: L R\r\nSampling rate : 48.0 KHz\r\nBit depth : 16 bits\r\nCompression mode : Lossy\r\nDelay relative to video : -176ms\r\nStream size : 25.2 MiB (2%)\r\n\r\nAudio #3\r\nID : 189 (0xBD)-130 (0x82)\r\nFormat : AC-3\r\nFormat/Info : Audio Coding 3\r\nMode extension : CM (complete main)\r\nMuxing mode : DVD-Video\r\nDuration : 18mn 20s\r\nBit rate mode : Constant\r\nBit rate : 448 Kbps\r\nChannel(s) : 6 channels\r\nChannel positions : Front: L C R, Side: L R, LFE\r\nSampling rate : 48.0 KHz\r\nBit depth : 16 bits\r\nCompression mode : Lossy\r\nDelay relative to video : -280ms\r\nStream size : 58.7 MiB (6%)\r\n\r\nAudio #4\r\nID : 189 (0xBD)-139 (0x8B)\r\nFormat : DTS\r\nFormat/Info : Digital Theater Systems\r\nMuxing mode : DVD-Video\r\nDuration : 18mn 20s\r\nBit rate mode : Constant\r\nBit rate : 755 Kbps\r\nChannel(s) : 6 channels\r\nChannel positions : Front: L C R, Side: L R, LFE\r\nSampling rate : 48.0 KHz\r\nBit depth : 24 bits\r\nCompression mode : Lossy\r\nDelay relative to video : -322ms\r\nStream size : 98.9 MiB (10%)\r\n[/code]
VIDEO_TS/VIDEO_TS.BUP 16.384 KB
VIDEO_TS/VIDEO_TS.IFO 16.384 KB
VIDEO_TS/VIDEO_TS.VOB 10.24 KB
Gathering some info...

Register and log in Isohunt and see no captcha anymore!

4000 symbols left
Hash A067661C0C5F15A84BF2E7042A249689AC202DC4

Related torrents for "Whitesnake - Live In The Still Of The Night (2006)[DVD9]"

Torrent search:

2006 dvdr