imdb
rating

7.0
The Amazing Spider-Man

The Amazing Spider-Man (2012)

Action, Adventure, Fantasy

Full description
quality   hd dvdrip screener x264 fullhd bd

The Amazing Spiderman (2012) DvdRip-BBnRG rar

Size 1.356 GB   0 seeders     Added 2012-09-27 03:41:00

Stream torrent
Starting‥ You need BitLord! Get it from BitLord.com
To download or stream you need BitLord. Visit them at BitLord.com
Format                           : AVI\r\nFormat/Info                      : Audio Video Interleave\r\nFile size                        : 1.26 GiB\r\nDuration                         : 2h 10mn\r\nOverall bit rate                 : 1 386 Kbps\r\n\r\nVideo\r\nID                               : 0\r\nFormat                           : MPEG-4 Visual\r\nFormat profile                   : Advanced Simple@L5\r\nFormat settings, BVOP            : 2\r\nFormat settings, QPel            : No\r\nFormat settings, GMC             : No warppoints\r\nFormat settings, Matrix          : Default (H.263)\r\nMuxing mode                      : Packed bitstream\r\nCodec ID                         : DvdRip\r\nCodec ID/Hint                    : DvdRip\r\nDuration                         : 2h 10mn\r\nBit rate                         : 1 249 Kbps\r\nWidth                            : 720 pixels\r\nHeight                           : 320 pixels\r\nDisplay aspect ratio             : 2.25:1\r\nFrame rate                       : 23.976 fps\r\nColor space                      : YUV\r\nChroma subsampling               : 4:2:0\r\nBit depth                        : 8 bits\r\nScan type                        : Progressive\r\nCompression mode                 : Lossy\r\nBits/(Pixel*Frame)               : 0.226\r\nStream size                      : 1.14 GiB (90%)\r\nWriting library                  : XviD 64\r\n\r\nAudio\r\nID                               : 1\r\nFormat                           : AC-3\r\nFormat/Info                      : Audio Coding 3\r\nMode extension                   : CM (complete main)\r\nCodec ID                         : 2000\r\nDuration                         : 2h 9mn\r\nBit rate mode                    : Constant\r\nBit rate                         : 128 Kbps\r\nChannel(s)                       : 2 channels\r\nChannel positions                : Front: L R\r\nSampling rate                    : 48.0 KHz\r\nBit depth                        : 16 bits\r\nCompression mode                 : Lossy\r\nStream size                      : 118 MiB (9%)\r\nAlignment                        : Aligned on interleaves\r\nInterleave, duration             : 42 ms (1.01 video frame)\r\n\r\n\r\nThis image has been resized. View the full image (720x320)\r\n\r\n\r\nThis image has been resized. View the full image (720x320)
The Amazing Spiderman (2012) DvdRip-BBnRG.rar 1.356 GB
Gathering some info...

Register and log in Isohunt and see no captcha anymore!

4000 symbols left
Hash C52D1BE3745CBAF02F14AED84A58ABD1E1946EDC

Related torrents for "The Amazing Spiderman (2012) DvdRip-BBnRG rar"

Torrent search:

dvdrip 2012