imdb
rating

7.1
The Master

The Master (2012)

Drama

Full description
quality   dvdr dvdrip

The Master 2012 DVDRip XviD-3LT0N

Size 745.061 MB   0 seeders     Added 2012-09-27 07:24:29

Stream torrent
Starting‥ You need BitLord! Get it from 1BitLord.com
To download or stream you need BitLord. Visit them at BitLord.com
Format                           : MPEG-4                      
         Format profile                   : Base Media                  
         Codec ID                         : isom                        
         File size                        : 572 MiB                     
         Duration                         : 1h 31mn                     
         Overall bit rate                 : 875 Kbps                    
                                                                        
         Video                                                          
         ID                               : 1                           
         Format                           : AVC                         
         Format/Info                      : Advanced Video Codec        
         Format profile                   : High@L3.0                   
         Format settings, CABAC           : Yes                         
         Format settings, ReFrames        : 4 frames                    
         Codec ID                         : avc1                        
         Codec ID/Info                    : Advanced Video Coding       
         Duration                         : 1h 31mn                     
         Bit rate                         : 677 Kbps                    
         Width                            : 720 pixels                  
         Height                           : 336 pixels                  
         Display aspect ratio             : 2.2:1                       
         Frame rate mode                  : Constant                    
         Frame rate                       : 24.000 fps                  
         Color space                      : YUV                         
         Chroma subsampling               : 4:2:0                       
         Bit depth                        : 8 bits                      
         Scan type                        : Progressive                 
         Bits/(Pixel*Frame)               : 0.117                       
         Stream size                      : 442 MiB (77%)               
         Writing library                  : x264 core 112               
                                                                        
         Audio                                                          
         ID                               : 2                           
         Format                           : AAC                         
         Format/Info                      : Advanced Audio Codec        
         Format profile                   : LC                          
         Codec ID                         : 40                          
         Duration                         : 1h 31mn                     
         Bit rate mode                    : Constant                    
         Bit rate                         : 192 Kbps                    
         Channel(s)                       : 6 channels                  
         Sampling rate                    : 48.0 KHz                    
         Compression mode                 : Lossy                       
         Stream size                      : 126 MiB (22%)               
         Language                         : English
The Master 2012 DVDRip XviD-3LT0N/info.nfo 5.075 KB
The Master 2012 DVDRip XviD-3LT0N/Readme.txt 683 B
The Master 2012 DVDRip XviD-3LT0N/Subtitle.srt 66.326 KB
Gathering some info...

Register and log in Isohunt and see no captcha anymore!

4000 symbols left
Hash a2c3eed92a6c9c7e04c79149dfa0f1eda73b32e6

Related torrents for "The Master 2012 DVDRip XviD-3LT0N"

Torrent search:

dvdrip 2012