imdb
rating

7.0
ParaNorman

ParaNorman (2012)

Adventure, Animation, Comedy, Family

Full description
quality   dvdrip dvd screener bd x264 hd

ParaNorman 2012 DVDRip XviD-3LT0N

Size 728.675 MB   0 seeders     Added 2012-09-27 07:17:23

Stream torrent
Starting‥ You need BitLord! Get it from BitLord.com
To download or stream you need BitLord. Visit them at BitLord.com
\r\n\r\n\r\n\r\n\r\n\r\n\r\nFormat                           : MPEG-4                      \r\n         Format profile                   : Base Media                  \r\n         Codec ID                         : isom                        \r\n         File size                        : 572 MiB                     \r\n         Duration                         : 1h 31mn                     \r\n         Overall bit rate                 : 875 Kbps                    \r\n                                                                        \r\n         Video                                                          \r\n         ID                               : 1                           \r\n         Format                           : AVC                         \r\n         Format/Info                      : Advanced Video Codec        \r\n         Format profile                   : High@L3.0                   \r\n         Format settings, CABAC           : Yes                         \r\n         Format settings, ReFrames        : 4 frames                    \r\n         Codec ID                         : avc1                        \r\n         Codec ID/Info                    : Advanced Video Coding       \r\n         Duration                         : 1h 31mn                     \r\n         Bit rate                         : 677 Kbps                    \r\n         Width                            : 720 pixels                  \r\n         Height                           : 336 pixels                  \r\n         Display aspect ratio             : 2.2:1                       \r\n         Frame rate mode                  : Constant                    \r\n         Frame rate                       : 24.000 fps                  \r\n         Color space                      : YUV                         \r\n         Chroma subsampling               : 4:2:0                       \r\n         Bit depth                        : 8 bits                      \r\n         Scan type                        : Progressive                 \r\n         Bits/(Pixel*Frame)               : 0.117                       \r\n         Stream size                      : 442 MiB (77%)               \r\n         Writing library                  : x264 core 112               \r\n                                                                        \r\n         Audio                                                          \r\n         ID                               : 2                           \r\n         Format                           : AAC                         \r\n         Format/Info                      : Advanced Audio Codec        \r\n         Format profile                   : LC                          \r\n         Codec ID                         : 40                          \r\n         Duration                         : 1h 31mn                     \r\n         Bit rate mode                    : Constant                    \r\n         Bit rate                         : 192 Kbps                    \r\n         Channel(s)                       : 6 channels                  \r\n         Sampling rate                    : 48.0 KHz                    \r\n         Compression mode                 : Lossy                       \r\n         Stream size                      : 126 MiB (22%)               \r\n         Language                         : English                   \r\n\r\n\r\n\r\n\r\n
ParaNorman 2012 DVDRip XviD-3LT0N/info5.nfo 3.128 KB
ParaNorman 2012 DVDRip XviD-3LT0N/ParaNorman[2012]DVDRip XviD-3LT0N.wmv 728.669 MB
ParaNorman 2012 DVDRip XviD-3LT0N/Readme.txt 2.746 KB
Gathering some info...

Register and log in Isohunt and see no captcha anymore!

4000 symbols left
Hash ef74185e9bee75238feee381777d3fedb8b79fe8

Related torrents for "ParaNorman 2012 DVDRip XviD-3LT0N"

Torrent search:

dvdrip 2012