imdb
rating

7.2
Pitch Perfect

Pitch Perfect (2012)

Comedy, Music, Romance

Full description
quality   cam dvdrip dvd telesync x264

Pitch Perfect 2012 DVDRip XviD-3LT0N

Size 714.612 MB   0 seeders     Added 2012-09-27 07:16:01

Stream torrent
Starting‥ You need BitLord! Get it from BitLord.com
To download or stream you need BitLord. Visit them at BitLord.com
Format                           : MPEG-4                      
         Format profile                   : Base Media                  
         Codec ID                         : isom                        
         File size                        : 572 MiB                     
         Duration                         : 1h 31mn                     
         Overall bit rate                 : 875 Kbps                    
                                                                        
         Video                                                          
         ID                               : 1                           
         Format                           : AVC                         
         Format/Info                      : Advanced Video Codec        
         Format profile                   : High@L3.0                   
         Format settings, CABAC           : Yes                         
         Format settings, ReFrames        : 4 frames                    
         Codec ID                         : avc1                        
         Codec ID/Info                    : Advanced Video Coding       
         Duration                         : 1h 31mn                     
         Bit rate                         : 677 Kbps                    
         Width                            : 720 pixels                  
         Height                           : 336 pixels                  
         Display aspect ratio             : 2.2:1                       
         Frame rate mode                  : Constant                    
         Frame rate                       : 24.000 fps                  
         Color space                      : YUV                         
         Chroma subsampling               : 4:2:0                       
         Bit depth                        : 8 bits                      
         Scan type                        : Progressive                 
         Bits/(Pixel*Frame)               : 0.117                       
         Stream size                      : 442 MiB (77%)               
         Writing library                  : x264 core 112               
                                                                        
         Audio                                                          
         ID                               : 2                           
         Format                           : AAC                         
         Format/Info                      : Advanced Audio Codec        
         Format profile                   : LC                          
         Codec ID                         : 40                          
         Duration                         : 1h 31mn                     
         Bit rate mode                    : Constant                    
         Bit rate                         : 192 Kbps                    
         Channel(s)                       : 6 channels                  
         Sampling rate                    : 48.0 KHz                    
         Compression mode                 : Lossy                       
         Stream size                      : 126 MiB (22%)               
         Language                         : English
Pitch Perfect 2012 DVDRip XviD-3LT0N/info.nfo 5.075 KB
Pitch Perfect 2012 DVDRip XviD-3LT0N/Pitch Perfect[2012]DVDRip XviD-3LT0N.wmv 714.389 MB
Pitch Perfect 2012 DVDRip XviD-3LT0N/Readme.txt 683 B
Gathering some info...

Register and log in Isohunt and see no captcha anymore!

4000 symbols left
Hash aaa74a5f26e2b088c280e4c08abee0aa45daf3c7

Related torrents for "Pitch Perfect 2012 DVDRip XviD-3LT0N"

Torrent search:

dvdrip 2012