Tiesto Ft. Steve Aoki - Tornado (h264mp4)

Size 214.246 MB   3 seeders     Added 2012-09-28 02:41:55

Stream torrent
Starting‚Ä• You need BitLord! Get it from 1BitLord.com
To download or stream you need BitLord. Visit them at BitLord.com
General
Format : MPEG-4
Format profile : Base Media
Codec ID : isom
File size : 204 MiB
Duration : 4mn 44s
Overall bit rate mode : Variable
Overall bit rate : 6 024 Kbps
Encoded date : UTC 2012-09-25 03:02:25
Tagged date : UTC 2012-09-25 03:02:25
Video
ID : 1
Format : AVC
Format/Info : Advanced Video Codec
Format profile : High@L3.0
Format settings, CABAC : Yes
Format settings, ReFrames : 2 frames
Codec ID : avc1
Codec ID/Info : Advanced Video Coding
Duration : 4mn 44s
Bit rate : 5 942 Kbps
Maximum bit rate : 14.4 Mbps
Width : 720 pixels
Height : 480 pixels
Display aspect ratio : 16:9
Original display aspect ratio : 16:9
Frame rate mode : Constant
Frame rate : 23.976 fps
Standard : NTSC
Color space : YUV
Chroma subsampling : 4:2:0
Bit depth : 8 bits
Scan type : Progressive
Bits/(Pixel*Frame) : 0.717
Stream size : 202 MiB (99%)
Audio
ID : 2
Format : AAC
Format/Info : Advanced Audio Codec
Format profile : LC
Codec ID : 40
Duration : 4mn 44s
Bit rate mode : Variable
Bit rate : 78.6 Kbps
Maximum bit rate : 89.0 Kbps
Channel(s) : 2 channels
Channel positions : Front: L R
Sampling rate : 44.1 KHz
Compression mode : Lossy
Stream size : 2.67 MiB (1%) 
TiestoFt.SteveAoki-Tornado-descargar-videos.org.mp4 214.246 MB
Gathering some info...

Register and log in Isohunt and see no captcha anymore!

4000 symbols left
Hash 86903BEE71A94B12CF783239E5A4419CD1C7D0C4