Nengo Flow - Mueve El Booty (h264mp4)

Size 55.766 MB   0 seeders     Added 2012-09-28 02:42:08

Stream torrent
Starting‥ You need BitLord! Get it from BitLord.com
To download or stream you need BitLord. Visit them at BitLord.com
General

Format                         : MPEG-4
Format profile                 : Base Media
Codec ID                       : isom
File size                      : 53.2 MiB
Duration                       : 3mn 19s
Overall bit rate mode          : Variable
Overall bit rate               : 2 239 Kbps
Encoded date                   : UTC 2012-09-25 02:40:22
Tagged date                    : UTC 2012-09-25 02:40:22

Video
ID                             : 1
Format                         : AVC
Format/Info                    : Advanced Video Codec
Format profile                 : High@L3.0
Format settings, CABAC         : Yes
Format settings, ReFrames      : 2 frames
Codec ID                       : avc1
Codec ID/Info                  : Advanced Video Coding
Duration                       : 3mn 19s
Bit rate                       : 2 173 Kbps
Maximum bit rate               : 4 762 Kbps
Width                          : 720 pixels
Height                         : 480 pixels
Display aspect ratio           : 16:9
Original display aspect ratio  : 16:9
Frame rate mode                : Constant
Frame rate                     : 23.976 fps
Standard                       : NTSC
Color space                    : YUV
Chroma subsampling             : 4:2:0
Bit depth                      : 8 bits
Scan type                      : Progressive
Bits/(Pixel*Frame)             : 0.262
Stream size                    : 51.6 MiB (97%)


Audio
ID                             : 2
Format                         : AAC
Format/Info                    : Advanced Audio Codec
Format profile                 : LC
Codec ID                       : 40
Duration                       : 3mn 19s
Bit rate mode                  : Variable
Bit rate                       : 61.9 Kbps
Maximum bit rate               : 73.4 Kbps
Channel(s)                     : 2 channels
Channel positions              : Front: L R
Sampling rate                  : 44.1 KHz
Compression mode               : Lossy
Stream size                    : 1.47 MiB (3%)		
NengoFlow-MueveElBooty-descargar-videos.org.mp4 55.766 MB
Gathering some info...

Register and log in Isohunt and see no captcha anymore!

4000 symbols left
Hash 92C205A3EB4D01CF44058D72E953032D40E5AB7A