Hatfields & McCoys

Hatfields & McCoys (2012)

Action, Western

Full description

Hatfields and McCoys

Size 5.273 GB   0 seeders     Added 2012-09-29 02:54:31

Stream torrent
Starting‥ You need BitLord! Get it from 1BitLord.com
To download or stream you need BitLord. Visit them at BitLord.com
[img] image[/img]\r\n\r\nWith: Kevin Costner, Bill Paxton and Tom Berenger\r\n\r\nOp ware gebeurtenissen gebaseerde miniserie over een befaamde familieruzie die bijna een oorlog tussen de staten Kansas en West-Virginia veroorzaakte. Devil Anse Hatfield en Randall McCoy zijn twee goede vrienden uit de Burgeroorlog die thuis terugkeren op de grens tussen Kansas en West-Virginia aan de Tug River. Misverstanden en spanningen lopen steeds verder op en leiden tot hevige gewelddadige uitspattingen, mede door een romance tussen twee jonge leden van beide families...\r\n\r\nDramatization of the bitter blood feud between the two families on the West Virginia/Kentucky border in the years after the Civil War.\r\n\r\nhttp://www.imdb.com/title/tt1985443\r\n[COLOR=#DD0000]\r\n------------------------ Dutch Friends ------------------------\r\n---------------------------------------------------------------\r\n- Bezoek ook eens mijn vrienden op:  http://www.Film-Test.nl --\r\n----- voor mijn Nederlandse Sync. ondertitels ---- en meer ----\r\n------- http://www.Film-Test.nl ---- voor Films en meer -------\r\n---------------------------------------------------------------[/COLOR]\r\n\r\nGeneral\r\n\r\n[img]image[/img]\r\n\r\n[size=150]Hartelijk welkom icehorse op onze site, \r\nook wij zijn blij dat je ons forum waardeerd.\r\nVeel kijk plezier![/size]\r\n\r\nGeneral:\r\n\r\nComplete name                    : Hatfields and McCoys\\Hatfields and McCoys 01.avi\r\nFormat                           : AVI\r\nFormat/Info                      : Audio Video Interleave\r\nFile size                        : 1.64 GiB\r\nDuration                         : 1h 42mn\r\nOverall bit rate                 : 2 288 Kbps\r\n\r\nVideo:\r\n\r\nFormat                           : MPEG-4 Visual\r\nFormat profile                   : Simple@L3\r\nFormat settings, BVOP            : No\r\nFormat settings, QPel            : No\r\nFormat settings, GMC             : No warppoints\r\nFormat settings, Matrix          : Default (H.263)\r\nCodec ID                         : XVID\r\nCodec ID/Hint                    : XviD\r\nDuration                         : 1h 42mn\r\nBit rate                         : 1 830 Kbps\r\nWidth                            : 704 pixels\r\nHeight                           : 394 pixels\r\nDisplay aspect ratio             : 16:9\r\nFrame rate                       : 23.976 fps\r\nColor space                      : YUV\r\nChroma subsampling               : 4:2:0\r\nBit depth                        : 8 bits\r\nScan type                        : Progressive\r\nCompression mode                 : Lossy\r\nBits/(Pixel*Frame)               : 0.275\r\nStream size                      : 1.31 GiB (80%)\r\nWriting library                  : XviD 1.1.2 (UTC 2006-11-01)\r\n\r\nAudio:\r\n\r\nFormat                           : AC-3\r\nFormat/Info                      : Audio Coding 3\r\nMode extension                   : CM (complete main)\r\nCodec ID                         : 2000\r\nDuration                         : 1h 42mn\r\nBit rate mode                    : Constant\r\nBit rate                         : 448 Kbps\r\nChannel(s)                       : 6 channels\r\nChannel positions                : Front: L C R, Side: L R, LFE\r\nSampling rate                    : 48.0 KHz\r\nBit depth                        : 16 bits\r\nCompression mode                 : Lossy\r\nStream size                      : 329 MiB (20%)\r\nAlignment                        : Aligned on interleaves\r\nInterleave, duration             : 32 ms (0.77 video frame)\r\nInterleave, preload duration     : 192 ms
Cover/Hatfields and McCoys.jpg 48.33 KB
Cover/www.Film-Test.nl.JPG 34.175 KB
Hatfields and McCoys 01.avi 1.76 GB
Gathering some info...

Register and log in Isohunt and see no captcha anymore!

4000 symbols left
Hash 527B671A3C49CACF65F4662574D69DB54B541F20

Related torrents for "Hatfields and McCoys"