imdb
rating

7.1
People Like Us

People Like Us (2012)

Drama

Full description

People.Like.Us.2012.480p.BluRay.x264.By.ToXiiC.Ar.Sub

Size 356.463 MB   0 seeders     Added 2012-09-29 03:31:32

Stream torrent
Starting‥ You need BitLord! Get it from 1BitLord.com
To download or stream you need BitLord. Visit them at BitLord.com
General
Complete name                            :[ ArabJoy.Com ] - People.Like.Us.2012.480p.BluRay.x264.By.ToXiiC.mkv
Format                                   : RealMedia
File size                                : 340 MiB
Duration                                 : 1h 54mn
Overall bit rate                         : 403 Kbps
Performer                                : ArabJoy.Com
Copyright                                : ArabJoy.Com

Video
ID                                       : 1
Format                                   : RealVideo 4
Codec ID                                 : RV40
Codec ID/Info                            : Based on AVC (H.264), Real Player 9
Duration                                 : 1h 54mn
Bit rate                                 : 371 Kbps
Width                                    : 720 pixels
Height                                   : 408 pixels
Display aspect ratio                     : 16:9
Frame rate                               : 23.976 fps
Bits/(Pixel*Frame)                       : 0.053
Stream size                              : 304 MiB (89%)

Audio
ID                                       : 0
Format                                   : Cooker
Codec ID                                 : cook
Codec ID/Info                            : Based on G.722.1, Real Player 6
Duration                                 : 1h 54mn
Bit rate                                 : 32.0 Kbps
Channel(s)                               : 2 channels
Sampling rate                            : 22.05 KHz
Bit depth                                : 16 bits
Stream size                              : 26.3 MiB (8%)

Subtitle : Arabic ..		
[ ArabJoy.Com ] - People.Like.Us.2012.480p.BluRay.x264.By.ToXiiC.mkv 356.463 MB
Gathering some info...

Register and log in Isohunt and see no captcha anymore!

4000 symbols left
Hash EB13E18282CC45E6D8FB1219589AF2922DE8E408

Related torrents for "People.Like.Us.2012.480p.BluRay.x264.By.ToXiiC.Ar.Sub"

Torrent search:

x264 2012 bd