imdb
rating

6.8
Trouble with the Curve

Trouble with the Curve (2012)

Drama, Romance

Full description

Trouble with the Curve 2012 DVDRip XViD-MULTiPLY

Size 728.741 MB   0 seeders     Added 2012-09-29 11:07:35

Stream torrent
Starting‥ You need BitLord! Get it from BitLord.com
To download or stream you need BitLord. Visit them at BitLord.com
Video
ID : 0
Format : MPEG-4 Visual
Format profile : Advanced Simple@L5
Format settings, BVOP : Yes
Format settings, QPel : No
Format settings, GMC : No warppoints
Format settings, Matrix : Default (H.263)
Codec ID : XVID
Codec ID/Hint : XviD
Duration : 2h 4mn
Bit rate : 996 Kbps
Width : 640 pixels
Height : 280 pixels
Display aspect ratio : 2.25:1
Frame rate : 25.000 fps
Color space : YUV
Chroma subsampling : 4:2:0
Bit depth : 8 bits
Scan type : Progressive
Bits/(Pixel*Frame) : 0.222
Stream size : 590 MiB (83%)
Writing library : XviD 1.2.1 (UTC 2008-12-04)

Audio
ID : 1
Format : AC-3
Format/Info : Audio Coding 3
Mode extension : CM (complete main)
Codec ID : 2000
Duration : 2h 4mn
Bit rate mode : Constant
Bit rate : 192 Kbps
Channel(s) : 2 channels
Channel positions : Front: L R
Sampling rate : 48.0 KHz
Bit depth : 16 bits
Stream size : 172 MiB (16%)
Alignment : Aligned on interleaves
Interleave, duration : 40 ms (1.00 video frame)
Interleave, preload duration : 512 ms
Trouble with the Curve.2012.DVDRip.XViD-MULTiPLY/Trouble with the Curve.2012.DVDRip.XViD-MULTiPLY.wmv 728.669 MB
Trouble with the Curve.2012.DVDRip.XViD-MULTiPLY/Subtitle.srt 66.326 KB
Trouble with the Curve.2012.DVDRip.XViD-MULTiPLY/info.nfo 5.075 KB
Gathering some info...

Register and log in Isohunt and see no captcha anymore!

4000 symbols left
Hash 8c5fe2b290f5bb847702f42f571b36ae2499ee61

Related torrents for "Trouble with the Curve 2012 DVDRip XViD-MULTiPLY"

Torrent search:

dvdrip 2012