imdb
rating

7.2
Pitch Perfect

Pitch Perfect (2012)

Comedy, Music, Romance

Full description
quality   cam dvdrip dvd telesync x264

Pitch Perfect 2012 DVDRip XViD-MULTiPLY

Size 734.95 MB   0 seeders     Added 2012-09-29 11:00:25

Stream torrent
Starting‥ You need BitLord! Get it from BitLord.com
To download or stream you need BitLord. Visit them at BitLord.com
\r\n\r\n\r\n\r\nVideo\r\nID : 0\r\nFormat : MPEG-4 Visual\r\nFormat profile : Advanced Simple@L5\r\nFormat settings, BVOP : Yes\r\nFormat settings, QPel : No\r\nFormat settings, GMC : No warppoints\r\nFormat settings, Matrix : Default (H.263)\r\nCodec ID : XVID\r\nCodec ID/Hint : XviD\r\nDuration : 2h 4mn\r\nBit rate : 996 Kbps\r\nWidth : 640 pixels\r\nHeight : 280 pixels\r\nDisplay aspect ratio : 2.25:1\r\nFrame rate : 25.000 fps\r\nColor space : YUV\r\nChroma subsampling : 4:2:0\r\nBit depth : 8 bits\r\nScan type : Progressive\r\nBits/(Pixel*Frame) : 0.222\r\nStream size : 590 MiB (83%)\r\nWriting library : XviD 1.2.1 (UTC 2008-12-04)\r\n\r\nAudio\r\nID : 1\r\nFormat : AC-3\r\nFormat/Info : Audio Coding 3\r\nMode extension : CM (complete main)\r\nCodec ID : 2000\r\nDuration : 2h 4mn\r\nBit rate mode : Constant\r\nBit rate : 192 Kbps\r\nChannel(s) : 2 channels\r\nChannel positions : Front: L R\r\nSampling rate : 48.0 KHz\r\nBit depth : 16 bits\r\nStream size : 172 MiB (16%)\r\nAlignment : Aligned on interleaves\r\nInterleave, duration : 40 ms (1.00 video frame)\r\nInterleave, preload duration : 512 ms\r\n\r\n\r\n\r\n
Pitch Perfect.2012.DVDRip.XViD-MULTiPLY/subtitles/English/subtitles.srt 47.548 KB
Pitch Perfect.2012.DVDRip.XViD-MULTiPLY/subtitles/NL/subtitles.srt 71.182 KB
Pitch Perfect.2012.DVDRip.XViD-MULTiPLY/subtitles/Polish/subtitles.srt 31.875 KB
Gathering some info...

Register and log in Isohunt and see no captcha anymore!

4000 symbols left
Hash 3ee6d7e3b15fd5847dc9d87a515ef52bbcdea53f

Related torrents for "Pitch Perfect 2012 DVDRip XViD-MULTiPLY"

Torrent search:

dvdrip 2012