Beto Cuevas - Goodbye (h264/mp4)

Size 58.477 MB   8 seeders     Added 2012-09-30 03:33:19

Stream torrent
Starting‚Ä• You need BitLord! Get it from BitLord.com
To download or stream you need BitLord. Visit them at BitLord.com
General
Format : MPEG-4
Format profile : Base Media
Codec ID : isom
File size : 55.8 MiB
Duration : 4mn 22s
Overall bit rate mode : Variable
Overall bit rate : 1 783 Kbps
Encoded date : UTC 2012-09-28 04:06:16
Tagged date : UTC 2012-09-28 04:06:16
Video
ID : 1
Format : AVC
Format/Info : Advanced Video Codec
Format profile : High@L3.0
Format settings, CABAC : Yes
Format settings, ReFrames : 2 frames
Codec ID : avc1
Codec ID/Info : Advanced Video Coding
Duration : 4mn 22s
Bit rate : 1 723 Kbps
Maximum bit rate : 4 331 Kbps
Width : 720 pixels
Height : 480 pixels
Display aspect ratio : 16:9
Original display aspect ratio : 16:9
Frame rate mode : Constant
Frame rate : 29.970 fps
Standard : NTSC
Color space : YUV
Chroma subsampling : 4:2:0
Bit depth : 8 bits
Scan type : Progressive
Bits/(Pixel*Frame) : 0.166
Stream size : 53.9 MiB (97%)
Audio
ID : 2
Format : AAC
Format/Info : Advanced Audio Codec
Format profile : LC
Codec ID : 40
Duration : 4mn 22s
Bit rate mode : Variable
Bit rate : 56.8 Kbps
Maximum bit rate : 77.3 Kbps
Channel(s) : 2 channels
Channel positions : Front: L R
Sampling rate : 44.1 KHz
Compression mode : Lossy
Stream size : 1.78 MiB (3%) 
BetoCuevas-Goodbye-descargar-videos.org.mp4 58.477 MB
Gathering some info...

Register and log in Isohunt and see no captcha anymore!

4000 symbols left
Hash 51481C1A342F385627FF760346C2D3C366DD03FF