imdb
rating

6.4
Won't Back Down

Won't Back Down (2012)

Drama

Full description

Wont Back Down (2012) DVDRip(xvid) NL Subs DMT

Size 728.675 MB   0 seeders     Added 2012-09-30 08:59:49

Stream torrent
Starting‥ You need BitLord! Get it from BitLord.com
To download or stream you need BitLord. Visit them at BitLord.com
Video
ID                               : 0
Format                           : MPEG-4 Visual
Format profile                   : Advanced Simple@L5
Format settings, BVOP            : 2
Format settings, QPel            : No
Format settings, GMC             : No warppoints
Format settings, Matrix          : Default (H.263)
Codec ID                         : XVID
Codec ID/Hint                    : XviD
Duration                         : 1h 28mn
Bit rate                         : 945 Kbps
Width                            : 720 pixels
Height                           : 304 pixels
Display aspect ratio             : 2.35:1
Frame rate                       : 25.000 fps
Color space                      : YUV
Chroma subsampling               : 4:2:0
Bit depth                        : 8 bits
Scan type                        : Progressive
Compression mode                 : Lossy
Bits/(Pixel*Frame)               : 0.173
Stream size                      : 598 MiB (67%)
Writing library                  : XviD 1.2.1 (UTC 2008-12-04)

Audio
ID                               : 1
Format                           : AC-3
Format/Info                      : Audio Coding 3
Mode extension                   : CM (complete main)
Codec ID                         : 2000
Duration                         : 1h 28mn
Bit rate mode                    : Constant
Bit rate                         : 448 Kbps
Channel(s)                       : 6 channels
Channel positions                : Front: L C R, Side: L R, LFE
Sampling rate                    : 48.0 KHz
Bit depth                        : 16 bits
Compression mode                 : Lossy
Stream size                      : 283 MiB (32%)
Alignment                        : Aligned on interleaves
Interleave, duration             : 64 ms (1.60 video frames)
Interleave, preload duration     : 192 ms
Title                            : ps2 - [2] English_new
Wont Back Down (2012) DVDRip(xvid) NL Subs DMT/Won't Back Down (2012) DVDRip(xvid).wmv 728.669 MB
Wont Back Down (2012) DVDRip(xvid) NL Subs DMT/info5.nfo 3.128 KB
Wont Back Down (2012) DVDRip(xvid) NL Subs DMT/Readme.txt 2.746 KB
Gathering some info...

Register and log in Isohunt and see no captcha anymore!

4000 symbols left
Hash 3f49c6a8cda6794d4c7eda94e487358400ceb7fa

Related torrents for "Wont Back Down (2012) DVDRip(xvid) NL Subs DMT"

Torrent search:

dvdrip subs 2012