Kylie Minogue - Flower {M4A+MP4} (1080p)x264 [VX][P2PDL]

Size 39.258 MB   0 seeders     Added 2012-09-30 14:46:14

Stream torrent
Starting‥ You need BitLord! Get it from 1BitLord.com
To download or stream you need BitLord. Visit them at BitLord.com
Music video by Kylie Minogue performing Flower. P Line (p) 2012, the copyright in this audiovisual recording is owned by EMI Records Ltd. 1080p Full HD MP4 Video + 96 kbps/VBR M4A Audio Cover: image Sing along! English subtitles included. General Format : MPEG-4 Format profile : Base Media / Version 2 Codec ID : mp42 File size : 34.7 MiB Duration : 3mn 38s Overall bit rate mode : Variable Overall bit rate : 1 334 Kbps Video ID : 1 Format : AVC Format/Info : Advanced Video Codec Duration : 3mn 38s Bit rate mode : Variable Bit rate : 1 200 Kbps Width : 1 920 pixels Height : 1 080 pixels Display aspect ratio : 16:9 Frame rate mode : Constant Frame rate : 25.000 fps Color space : YUV Chroma subsampling : 4:2:0 Stream size : 31.3 MiB (90%) Audio ID : 2 Format : AAC Format/Info : Advanced Audio Codec Format profile : LC Duration : 3mn 38s Bit rate mode : Variable Bit rate : 126 Kbps Maximum bit rate : 147 Kbps Channel(s) : 2 channels Channel positions : Front: L R Sampling rate : 48.0 KHz Stream size : 3.27 MiB (9%) Screens: image image Thumbs: image ------------------------------------------------------------------------ Notes: * Best played on VLC Media Player. * Install shark007 codecs in case of any kind of problem in playback (For non-VLC Media Player users). * Alternatively, install Core AVC codecs, the fastest decoder that there is coupled with Community Center Codec Pack and play on Windows Media Player Classic. * Read NFO * Help in seeding this torrent as much as you can. Greets to: srkfan, VYTO, MgB, staff members at ExtraTorrent, TPB,KAT, 1337x, PublicHD, Ahashare, SilverTorrent, TorrentMafia, P2PDL, and all others Encoder Notes: Looking For Early Access To Anything You Can Provide DVDScr, R5, DVDRips, BluRay, Direct Audio, Early Music Releases, Seedboxes, Links, Dedicated Servers anything u can provide, Advance / Promo CDs/DVDs. If You Got anything to offer contact me at "contact@tinym.eu" Enjoy!
Kylie Minogue - Flower [2012] {M4A+MP4} (1080p) x264 [VX] [P2PDL]/Kylie Minogue - Flower (1080p) x264 [VX] [P2PDL].mp4 36.349 MB
Kylie Minogue - Flower [2012] {M4A+MP4} (1080p) x264 [VX] [P2PDL]/Kylie Minogue - Flower.m4a 2.839 MB
Kylie Minogue - Flower [2012] {M4A+MP4} (1080p) x264 [VX] [P2PDL]/Cover.jpg 53.164 KB
Gathering some info...

Register and log in Isohunt and see no captcha anymore!

4000 symbols left
Hash fb527521de662e3f3e51407017e9cff9b90e85a6

Related torrents for "Kylie Minogue - Flower {M4A+MP4} (1080p)x264 [VX][P2PDL]"

Torrent search:

x264 2012 fullhd