Havana Brown - Youll Be Mine {M4A+MP4}(1080p)x264[VX][P2PDL]

Size 49.508 MB   0 seeders     Added 2012-09-30 19:01:42

Stream torrent
Starting‥ You need BitLord! Get it from 1BitLord.com
To download or stream you need BitLord. Visit them at BitLord.com
Music video by Havana Brown performing You'll Be Mine. (C) 2012 Universal Music Australia Pty Ltd. 1080p Full HD MP4 Video + 96 kbps/VBR M4A Audio Cover: image Sing Along! English subtitles included. General Format : MPEG-4 Format profile : Base Media / Version 2 Codec ID : mp42 File size : 43.0 MiB Duration : 3mn 55s Overall bit rate mode : Variable Overall bit rate : 1 530 Kbps Video ID : 1 Format : AVC Format/Info : Advanced Video Codec Duration : 3mn 55s Bit rate mode : Variable Bit rate : 1 400 Kbps Width : 1 920 pixels Height : 1 080 pixels Display aspect ratio : 16:9 Frame rate mode : Variable Frame rate : 23.976 fps Stream size : 39.5 MiB (92%) Audio ID : 2 Format : AAC Format/Info : Advanced Audio Codec Format profile : LC Codec ID : 40 Duration : 3mn 55s Bit rate mode : Variable Bit rate : 119 Kbps Maximum bit rate : 195 Kbps Channel(s) : 2 channels Channel positions : Front: L R Sampling rate : 48.0 KHz Stream size : 3.36 MiB (8%) Subtitles : Yes (English) Screens: image image Thumbs: image ------------------------------------------------------------------------ Notes: * Best played on VLC Media Player. * Install shark007 codecs in case of any kind of problem in playback (For non-VLC Media Player users). * Alternatively, install Core AVC codecs, the fastest decoder that there is coupled with Community Center Codec Pack and play on Windows Media Player Classic. * Read NFO * Help in seeding this torrent as much as you can. Greets to: srkfan, VYTO, MgB, staff members at ExtraTorrent, TPB,KAT, 1337x, PublicHD, Ahashare, SilverTorrent, TorrentMafia, P2PDL, and all others Encoder Notes: Looking For Early Access To Anything You Can Provide DVDScr, R5, DVDRips, BluRay, Direct Audio, Early Music Releases, Seedboxes, Links, Dedicated Servers anything u can provide, Advance / Promo CDs/DVDs. If You Got anything to offer contact me at "contact@tinym.eu" Enjoy!
Havana Brown - You'll Be Mine [2012] {M4A+MP4} (1080p) x264 [VX] [P2PDL]/Havana Brown - You'll Be Mine (1080p) x264 [VX] [P2PDL].mp4 45.097 MB
Havana Brown - You'll Be Mine [2012] {M4A+MP4} (1080p) x264 [VX] [P2PDL]/Havana Brown - You'll Be Mine.m4a 4.332 MB
Havana Brown - You'll Be Mine [2012] {M4A+MP4} (1080p) x264 [VX] [P2PDL]/Cover.jpg 62.178 KB
Gathering some info...

Register and log in Isohunt and see no captcha anymore!

4000 symbols left
Hash 6d08b60685ecfe3456b6a9f4d1741fd068ce554d

Related torrents for "Havana Brown - Youll Be Mine {M4A+MP4}(1080p)x264[VX][P2PDL]"

Torrent search:

x264 2012 fullhd