VJ Sky - Masterboy Videomix 2010.avi

Size 362.656 MB   4 seeders     Added 2012-10-01 02:38:06

Stream torrent
Starting‚Ä• You need BitLord! Get it from 1BitLord.com
To download or stream you need BitLord. Visit them at BitLord.com
Video
ID                             : 0
Format                         : MPEG-4 Visual
Format profile                 : Simple@L1
Format settings, BVOP          : No
Format settings, QPel          : No
Format settings, GMC           : No warppoints
Format settings, Matrix        : Default (H.263)
Codec ID                       : DX50
Codec ID/Hint                  : DivX 5
Duration                       : 7mn 32s
Bit rate                       : 6 173 Kbps
Width                          : 720 pixels
Height                         : 576 pixels
Display aspect ratio           : 5:4
Frame rate                     : 50.000 fps
Standard                       : PAL
Color space                    : YUV
Chroma subsampling             : 4:2:0
Bit depth                      : 8 bits
Scan type                      : Interlaced
Scan order                     : Top Field First
Compression mode               : Lossy
Bits/(Pixel*Frame)             : 0.298
Stream size                    : 333 MiB (96%)
Writing library                : Lavc52.0.0

Audio
ID                             : 1
Format                         : MPEG Audio
Format version                 : Version 1
Format profile                 : Layer 3
Mode                           : Joint stereo
Codec ID                       : 55
Codec ID/Hint                  : MP3
Duration                       : 7mn 32s
Bit rate mode                  : Constant
Bit rate                       : 224 Kbps
Channel(s)                     : 2 channels
Sampling rate                  : 44.1 KHz
Compression mode               : Lossy
Stream size                    : 12.1 MiB (3%)
Alignment                      : Aligned on interleaves
Interleave, duration           : 26 ms (1.31 video frame)
Interleave, preload duration   : 809 ms
Writing library                : LAME3.97

Duration                       : 7mn 32s		
VJ Sky - Masterboy Videomix 2010.avi 362.656 MB
Gathering some info...

Register and log in Isohunt and see no captcha anymore!

4000 symbols left
Hash 9B7F4EAE7F4F07AF7E595E17693DE9AD7D69A6E5